Hot Teen Sex HD videos 1679

High Definition Movies on HD 1683Teen porn movies 1676

Posted in Amateur, HD Porn, Sex Movies, Teen | 57152 Views |


Rate this girl !!!




\r\n\r\n\r\nhttp://img102.imagetwist.com/i/05254/bq23czeao1h9.jpeg\r\n\r\n Link(524 Mb||20:07||1280*720||WMV)



DOWNLOAD

Keep2share.cc - Uploaded.net - Openload.co - Rapidu.net


http://keep2share.cc/file/3ee065b00f28c
http://ryushare.com/6t9mtqp0nwje/NBSGRSfv.rar
http://ul.to/qupm2ad7


Premium here:
uploaded.net
keep2share.cc
rapidu.net.cc


Teens related to Hot Teen Sex HD videos 1679


Orgy with pornstar young blonde teen ryushare uploaded keep2share

Orgy with pornstar young blonde teen

Porn teen hd downloads 5641 ryushare uploaded keep2share

Porn teen hd downloads 5641

sax yas xxx ryushare uploaded keep2share

sax yas xxx

Holly Michaels – Picture Perfect ryushare uploaded keep2share

Holly Michaels – Picture Perfect

Teen 18 Porn XXX Clips Naked 224758 ryushare uploaded keep2share

Teen 18 Porn XXX Clips Naked 224758

HD Porn Video 225189 ryushare uploaded keep2share

HD Porn Video 225189

Ivy & Uma Zen – Two Girls ryushare uploaded keep2share

Ivy & Uma Zen – Two Girls

Free Teen Porn Videos at Teen Sex Tube XXX 1416 ryushare uploaded keep2share

Free Teen Porn Videos at Teen Sex Tube XXX 1416

HD Porn Teen Sex Videos 2979 ryushare uploaded keep2share

HD Porn Teen Sex Videos 2979

HD Teens Sex Tube Videos XxX 224988 ryushare uploaded keep2share

HD Teens Sex Tube Videos XxX 224988

Movies Young legal porn 5242 ryushare uploaded keep2share

Movies Young legal porn 5242

Porno young teens movies 2581 ryushare uploaded keep2share

Porno young teens movies 2581

Young Virgin Pussy Teen Fuck Tube 225715 ryushare uploaded keep2share

Young Virgin Pussy Teen Fuck Tube 225715

Young XXX Tube Videos 2696 ryushare uploaded keep2share

Young XXX Tube Videos 2696

www dani daniels hd xxx video com 226136 ryushare uploaded keep2share

www dani daniels hd xxx video com 226136

Teen porn movies 5617 ryushare uploaded keep2share

Teen porn movies 5617

High Definition Movies on HD 4166 ryushare uploaded keep2share

High Definition Movies on HD 4166

Young Sex Movies 1335 ryushare uploaded keep2share

Young Sex Movies 1335

High Definition Movies on HD Teen Porn XXX Tube 1493 ryushare uploaded keep2share

High Definition Movies on HD Teen Porn XXX Tube 1493

Young legal porn clips 4029 ryushare uploaded keep2share

Young legal porn clips 4029

HD Porn Video 224842 ryushare uploaded keep2share

HD Porn Video 224842

teen porno sites xxx ryushare uploaded keep2share

teen porno sites xxx

free download sovjetmassage com 226506 ryushare uploaded keep2share

free download sovjetmassage com 226506

Porn massage young brunette ryushare uploaded keep2share

Porn massage young brunette

Teenies Videos – Teen Porn, Teen Sex, XXX Free Videos 1306 ryushare uploaded keep2share

Teenies Videos – Teen Porn, Teen Sex, XXX Free Videos 1306

Hot Teen Sex HD videos 223993 ryushare uploaded keep2share

Hot Teen Sex HD videos 223993

Teen Sex Movies 224577 ryushare uploaded keep2share

Teen Sex Movies 224577

Dunya – Dreams-HD ryushare uploaded keep2share

Dunya – Dreams-HD

Model porno sex 4099 ryushare uploaded keep2share

Model porno sex 4099

Watch Teen Sex Videos HD 225363 ryushare uploaded keep2share

Watch Teen Sex Videos HD 225363

Sweet Teen Porn – Young Porn Videos 224820 ryushare uploaded keep2share

Sweet Teen Porn – Young Porn Videos 224820

SexArt.com Dominica Phoenix, Katy Rose, Lexie Dona ryushare uploaded keep2share

SexArt.com Dominica Phoenix, Katy Rose, Lexie Dona

white skin HD sex videos 226028 ryushare uploaded keep2share

white skin HD sex videos 226028

HD Porn Teen Sex Videos 225317 ryushare uploaded keep2share

HD Porn Teen Sex Videos 225317

Hardcore sex videos in the high definition quality 3582 ryushare uploaded keep2share

Hardcore sex videos in the high definition quality 3582

Report broken links / Post a comment

You must be logged in to post a comment.



General\r\nComplete name : D:HD Teens Download Porn Sex clips movies Tube.xxxNBSGRSfvNBSGRSfv.wmv\r\nFormat : Windows Media\r\nFile size : 524 MiB\r\nDuration : 20mn 7s\r\nOverall bit rate mode : Constant\r\nOverall bit rate : 3 644 Kbps\r\nMaximum Overall bit rate : 3 658 Kbps\r\nEncoded date : UTC 2008-05-17 06:31:19.125\r\nWriting application : TMPGEnc 4.0 XPress Version. 4.4.2.238\r\n\r\nVideo\r\nID : 2\r\nFormat : VC-1\r\nFormat profile : [email protected]\r\nCodec ID : WMV3\r\nCodec ID/Info : Windows Media Video 9\r\nCodec ID/Hint : WMV3\r\nDescription of the codec : Windows Media Video 9 - Professional\r\nDuration : 20mn 7s\r\nBit rate mode : Constant\r\nBit rate : 3 500 Kbps\r\nWidth : 1 280 pixels\r\nHeight : 720 pixels\r\nDisplay aspect ratio : 16:9\r\nFrame rate : 29.970 fps\r\nColor space : YUV\r\nChroma subsampling : 4:2:0\r\nBit depth : 8 bits\r\nScan type : Progressive\r\nCompression mode : Lossy\r\nBits/(Pixel*Frame) : 0.127\r\nStream size : 504 MiB (96%)\r\nLanguage : English (US)\r\n\r\nAudio\r\nID : 1\r\nFormat : WMA\r\nFormat version : Version 2\r\nCodec ID : 161\r\nCodec ID/Info : Windows Media Audio\r\nDescription of the codec : Windows Media Audio 9.1 - 127 kbps, 48 kHz, stereo Low Delay 1-pass CBR\r\nDuration : 20mn 7s\r\nBit rate mode : Constant\r\nBit rate : 127 Kbps\r\nChannel(s) : 2 channels\r\nSampling rate : 48.0 KHz\r\nBit depth : 16 bits\r\nStream size : 18.3 MiB (3%)\r\nLanguage : English (US)\r\n\r\n