Hot Teen Sex HD videos 1883

High Definition Movies on HD 1894Adult Hardcore XXX Sex Videos 1879

Posted in Amateur, HD Porn, Sex Movies, Teen | 313720 Views |


Rate this girl !!!




\r\n\r\nhttp://img56.imagetwist.com/i/05289/ihgvjh1kuaai.jpeg\r\n\r\n Link(691 Mb||16:02||1920*1080||MP4)



DOWNLOAD

Keep2share.cc - Uploaded.net - Openload.co - Rapidu.net


http://keep2share.cc/file/e663659cb40c8
http://ryushare.com/9yq1d3uah7xf/PRTBGKnx.rar
http://ul.to/u2slzg20


Premium here:
uploaded.net
keep2share.cc
rapidu.net.cc


Teens related to Hot Teen Sex HD videos 1883


Teens in Porno young porn videos and free teen sex 224928 ryushare uploaded keep2share

Teens in Porno young porn videos and free teen sex 224928

www xxx sex naughty america com hd downlod ryushare uploaded keep2share

www xxx sex naughty america com hd downlod

Hd quality – Teen sex video 223909 ryushare uploaded keep2share

Hd quality – Teen sex video 223909

sixe xxx hq 226055 ryushare uploaded keep2share

sixe xxx hq 226055

www HD sex videoxxx com ryushare uploaded keep2share

www HD sex videoxxx com

Free High Quality Sex Movies 5278 ryushare uploaded keep2share

Free High Quality Sex Movies 5278

Jenny Simons – At The Right Time ryushare uploaded keep2share

Jenny Simons – At The Right Time

Teen Sex Movies 223950 ryushare uploaded keep2share

Teen Sex Movies 223950

Porn teen hd downloads 5641 ryushare uploaded keep2share

Porn teen hd downloads 5641

Fresh Teen Videos 3763 ryushare uploaded keep2share

Fresh Teen Videos 3763

Teen xxx sex hd 224286 ryushare uploaded keep2share

Teen xxx sex hd 224286

Young Virgin Pussy Teen Fuck Tube 2962 ryushare uploaded keep2share

Young Virgin Pussy Teen Fuck Tube 2962

Marina – YoungLibertines ryushare uploaded keep2share

Marina – YoungLibertines

Tube Young Sex 1390 ryushare uploaded keep2share

Tube Young Sex 1390

sex 18 xxxxxxxxx hd ryushare uploaded keep2share

sex 18 xxxxxxxxx hd

[FTVGirls.com] 2016-10-07 – Eva & Violet Starr – College Girls In Love [Lesbo, Toys, Fisting, 1080p] ryushare uploaded keep2share

[FTVGirls.com] 2016-10-07 – Eva & Violet Starr – College Girls In Love [Lesbo, Toys, Fisting, 1080p]

Tube Young Sex Amateur Orgy 4891 ryushare uploaded keep2share

Tube Young Sex Amateur Orgy 4891

First time Sexual Films 18 sex xxx 225796 ryushare uploaded keep2share

First time Sexual Films 18 sex xxx 225796

xxx vid sex hd18 www ryushare uploaded keep2share

xxx vid sex hd18 www

SpinChix mp4 226131 ryushare uploaded keep2share

SpinChix mp4 226131

First time Sexual Films 18 sex xxx 4745 ryushare uploaded keep2share

First time Sexual Films 18 sex xxx 4745

www hd model sex telars hd com 226682 ryushare uploaded keep2share

www hd model sex telars hd com 226682

Xxx comsexxx 226198 ryushare uploaded keep2share

Xxx comsexxx 226198

Watch Teen Sex Videos HD 225525 ryushare uploaded keep2share

Watch Teen Sex Videos HD 225525

YoungCourtesans.com Shakti – Special Sex Arrangement ryushare uploaded keep2share

YoungCourtesans.com Shakti – Special Sex Arrangement

Alyona – Hardcore Parlour ryushare uploaded keep2share

Alyona – Hardcore Parlour

Porn teen hd downloads 224098 ryushare uploaded keep2share

Porn teen hd downloads 224098

Porn HD Sex HD Teen Sex 224824 ryushare uploaded keep2share

Porn HD Sex HD Teen Sex 224824

Young Sex Movies 5160 ryushare uploaded keep2share

Young Sex Movies 5160

HD Teen Sex Tube 225487 ryushare uploaded keep2share

HD Teen Sex Tube 225487

wow grils ryushare uploaded keep2share

wow grils

www xxxx 18teen grils ryushare uploaded keep2share

www xxxx 18teen grils

First time Sexual Films 18 sex xxx 3607 ryushare uploaded keep2share

First time Sexual Films 18 sex xxx 3607

breezer hd porn video 226339 ryushare uploaded keep2share

breezer hd porn video 226339

free heigh definition porn movies download 226263 ryushare uploaded keep2share

free heigh definition porn movies download 226263

Report broken links / Post a comment

You must be logged in to post a comment.



General\r\nComplete name : D:HD Teens Download Porn Sex clips movies Tube.xxxPRTBGKnxPRTBGKnx.mp4\r\nFormat : MPEG-4\r\nFormat profile : Base Media\r\nCodec ID : isom\r\nFile size : 691 MiB\r\nDuration : 16mn 2s\r\nOverall bit rate mode : Variable\r\nOverall bit rate : 6 022 Kbps\r\nWriting application : Lavf54.22.100\r\n\r\nVideo\r\nID : 1\r\nFormat : MPEG-4 Visual\r\nFormat profile : [email protected]\r\nFormat settings, BVOP : No\r\nFormat settings, QPel : No\r\nFormat settings, GMC : No warppoints\r\nFormat settings, Matrix : Default (H.263)\r\nCodec ID : 20\r\nDuration : 16mn 2s\r\nBit rate mode : Variable\r\nBit rate : 5 915 Kbps\r\nMaximum bit rate : 8 500 Kbps\r\nWidth : 1 920 pixels\r\nHeight : 1 080 pixels\r\nDisplay aspect ratio : 16:9\r\nFrame rate mode : Constant\r\nFrame rate : 23.976 fps\r\nColor space : YUV\r\nChroma subsampling : 4:2:0\r\nBit depth : 8 bits\r\nScan type : Progressive\r\nCompression mode : Lossy\r\nBits/(Pixel*Frame) : 0.119\r\nStream size : 679 MiB (98%)\r\nWriting library : Lavc54.46.100\r\nLanguage : English\r\n\r\nAudio\r\nID : 2\r\nFormat : AAC\r\nFormat/Info : Advanced Audio Codec\r\nFormat profile : LC\r\nCodec ID : 40\r\nDuration : 16mn 2s\r\nBit rate mode : Variable\r\nBit rate : 102 Kbps\r\nMaximum bit rate : 128 Kbps\r\nChannel(s) : 2 channels\r\nChannel positions : Front: L R\r\nSampling rate : 48.0 KHz\r\nCompression mode : Lossy\r\nStream size : 11.8 MiB (2%)\r\nLanguage : English\r\n\r\n