Hot teen

Hot JapaneseLilly - Hot pussy Fuck In An Armchair

Posted in Amateur, HD Porn, Sex Movies, Teen | 7493 Views |


Rate this girl !!!




Profiles705\r\nFile Information:\r\nmp4 | 459.67 MB | 00:23:22 | 720×540 \r\n\r\n \r\n\r\n\r\n \r\n\r\n 



DOWNLOAD

Keep2share.cc - Uploaded.net - Openload.co - Rapidu.net


http://keep2share.cc/file/52d727fc38227
http://ul.to/uzusuyqk
http://ryushare.com/4c7d0ea6d633/T33n705.rar



Premium here:
uploaded.net
keep2share.cc
rapidu.net.cc

Teens related to Hot teen


Wow Porn Movies download) 5153 ryushare uploaded keep2share

Wow Porn Movies download) 5153

Jessie Volt, Aysha Rouge (K Two Teasing Tongues 13) AB ryushare uploaded keep2share

Jessie Volt, Aysha Rouge (K Two Teasing Tongues 13) AB

Free Young Porn Videos XXX Teen Porn 4185 ryushare uploaded keep2share

Free Young Porn Videos XXX Teen Porn 4185

www hd xxxxxx bideos com 226676 ryushare uploaded keep2share

www hd xxxxxx bideos com 226676

HD Porn Teen Sex Videos 224669 ryushare uploaded keep2share

HD Porn Teen Sex Videos 224669

wwwten sex hd com 226451 ryushare uploaded keep2share

wwwten sex hd com 226451

big boobs teen 226172 ryushare uploaded keep2share

big boobs teen 226172

Iwia A & Lorena B & Greg Baldwin – Dare ryushare uploaded keep2share

Iwia A & Lorena B & Greg Baldwin – Dare

Girls do porn downloads 3828 ryushare uploaded keep2share

Girls do porn downloads 3828

Amateur Teen Sex 223903 ryushare uploaded keep2share

Amateur Teen Sex 223903

The best Teen sex 3727 ryushare uploaded keep2share

The best Teen sex 3727

Amateur teen summer sex movies 4816 ryushare uploaded keep2share

Amateur teen summer sex movies 4816

me bbxxxhd 226343 ryushare uploaded keep2share

me bbxxxhd 226343

Sex Teens porn movies 3015 ryushare uploaded keep2share

Sex Teens porn movies 3015

Teens Love huge cooks 1166 ryushare uploaded keep2share

Teens Love huge cooks 1166

hdsex movea com 226516 ryushare uploaded keep2share

hdsex movea com 226516

Beautifull 18 years girl amateur 4791 ryushare uploaded keep2share

Beautifull 18 years girl amateur 4791

ww hot sex hdvideo download com ryushare uploaded keep2share

ww hot sex hdvideo download com

HD Sex World Videos High Definition Free Porn 224514 ryushare uploaded keep2share

HD Sex World Videos High Definition Free Porn 224514

Dani Daniels HD Hot Teen ryushare uploaded keep2share

Dani Daniels HD Hot Teen

HQ Sex Movies Download 4163 ryushare uploaded keep2share

HQ Sex Movies Download 4163

wow girl outdor besd hd porn vedio dawunlod 2015 ryushare uploaded keep2share

wow girl outdor besd hd porn vedio dawunlod 2015

Teens in Porno young porn videos and free teen sex 1672 ryushare uploaded keep2share

Teens in Porno young porn videos and free teen sex 1672

Free Porn Videos Xxx Movies Pussy Porn 5304 ryushare uploaded keep2share

Free Porn Videos Xxx Movies Pussy Porn 5304

Wow girls porn teens 4595 ryushare uploaded keep2share

Wow girls porn teens 4595

www sexxxxxx cm ryushare uploaded keep2share

www sexxxxxx cm

Hd quality – Teen sex video 1289 ryushare uploaded keep2share

Hd quality – Teen sex video 1289

Porn party teen girls 225121 ryushare uploaded keep2share

Porn party teen girls 225121

Teen sex xxx hd 4287 ryushare uploaded keep2share

Teen sex xxx hd 4287

Porn party teen girls 225425 ryushare uploaded keep2share

Porn party teen girls 225425

www xxx hd movi in 226018 ryushare uploaded keep2share

www xxx hd movi in 226018

Japanese casting –  Harada Airi ryushare uploaded keep2share

Japanese casting – Harada Airi

Porn teen hd downloads 224748 ryushare uploaded keep2share

Porn teen hd downloads 224748

Uploaded net porn 2834 ryushare uploaded keep2share

Uploaded net porn 2834

Free Young Porn Videos XXX Teen Porn 224223 ryushare uploaded keep2share

Free Young Porn Videos XXX Teen Porn 224223

Report broken links / Post a comment

You must be logged in to post a comment.



General\r\nComplete name : D:Teeeen705.mp4\r\nFormat : MPEG-4\r\nFormat profile : Base Media / Version 2\r\nCodec ID : mp42\r\nFile size : 460 MiB\r\nDuration : 23mn 23s\r\nOverall bit rate mode : Variable\r\nOverall bit rate : 2 748 Kbps\r\nMovie name : love-the-cock-scene2\r\nEncoded date : UTC 2013-12-12 08:08:21\r\nTagged date : UTC 2013-12-12 08:08:21\r\nComment : VideosZ.com\r\n\r\nVideo\r\nID : 201\r\nFormat : AVC\r\nFormat/Info : Advanced Video Codec\r\nFormat profile : [email protected]\r\nFormat settings, CABAC : No\r\nFormat settings, ReFrames : 3 frames\r\nCodec ID : avc1\r\nCodec ID/Info : Advanced Video Coding\r\nDuration : 23mn 22s\r\nBit rate : 2 600 Kbps\r\nMaximum bit rate : 3 922 Kbps\r\nWidth : 720 pixels\r\nHeight : 540 pixels\r\nDisplay aspect ratio : 4:3\r\nFrame rate mode : Constant\r\nFrame rate : 30.000 fps\r\nColor space : YUV\r\nChroma subsampling : 4:2:0\r\nBit depth : 8 bits\r\nScan type : Progressive\r\nBits/(Pixel*Frame) : 0.223\r\nStream size : 435 MiB (95%)\r\nTitle : /home/vz/encoder/tmp/MP4-love-the-cock-scene2.mp4.h264 - Imported with GPAC 0.4.6-DEV (internal rev. 8)\r\nWriting library : x264 core 112\r\nEncoding settings : cabac=0 / ref=3 / deblock=1:0:0 / analyse=0x1:0x11 / me=umh / subme=6 / psy=1 / psy_rd=0.80:0.20 / mixed_ref=1 / me_range=24 / chroma_me=1 / trellis=1 / 8x8dct=0 / cqm=0 / deadzone=21,11 / fast_pskip=0 / chroma_qp_offset=-3 / threads=24 / sliced_threads=0 / nr=0 / decimate=0 / interlaced=0 / constrained_intra=0 / bframes=0 / weightp=0 / keyint=300 / keyint_min=30 / scenecut=40 / intra_refresh=0 / rc_lookahead=40 / rc=cbr / mbtree=0 / bitrate=2600 / ratetol=1.0 / qcomp=0.60 / qpmin=0 / qpmax=51 / qpstep=4 / vbv_maxrate=2600 / vbv_bufsize=14475 / nal_hrd=none / ip_ratio=1.40 / aq=2:1.00\r\nEncoded date : UTC 2013-12-12 08:08:21\r\nTagged date : UTC 2013-12-12 08:08:29\r\n\r\nAudio\r\nID : 101\r\nFormat : AAC\r\nFormat/Info : Advanced Audio Codec\r\nFormat profile : LC\r\nCodec ID : 40\r\nDuration : 23mn 23s\r\nBit rate mode : Variable\r\nBit rate : 50.0 Kbps\r\nMaximum bit rate : 53.9 Kbps\r\nChannel(s) : 2 channels\r\nChannel positions : Front: L R\r\nSampling rate : 44.1 KHz\r\nCompression mode : Lossy\r\nStream size : 8.37 MiB (2%)\r\nTitle : LC-AAC Stereo\r\nEncoded date : UTC 2013-12-12 08:08:25\r\nTagged date : UTC 2013-12-12 08:08:29\r\n\r\n