Teens Love huge cooks 1166

HD Porn Videos 1169HD Teen Sex Tube 1160

Posted in HD Porn, Sex Movies, Teen | 18784 Views |


Rate this girl !!!




\r\n\r\nhttp://img101.imagetwist.com/i/05163/194elq0ewyh7.jpeg\r\n\r\n Link(407 Mb||36:57||768*432||MP4) \r\n\r\n 



DOWNLOAD

Keep2share.cc - Uploaded.net - Openload.co - Rapidu.net


http://keep2share.cc/file/52efa2cfcfff2
http://ryushare.com/la2vc9by3m2a/TNHGCKry.rar
http://ul.to/2elrgxui


Premium here:
uploaded.net
keep2share.cc
rapidu.net.cc


Teens related to Teens Love huge cooks 1166


Porn teen hd downloads 5641 ryushare uploaded keep2share

Porn teen hd downloads 5641

Watch Teen Sex Videos HD 1186 ryushare uploaded keep2share

Watch Teen Sex Videos HD 1186

free download sexy xxx mp4 movies com ryushare uploaded keep2share

free download sexy xxx mp4 movies com

Hot download sex girls movies 224263 ryushare uploaded keep2share

Hot download sex girls movies 224263

Iwia A & Lorena B & Greg Baldwin – Dare ryushare uploaded keep2share

Iwia A & Lorena B & Greg Baldwin – Dare

download teen hd porn video small size ryushare uploaded keep2share

download teen hd porn video small size

Young teens tube hot girls free porn video 1430 ryushare uploaded keep2share

Young teens tube hot girls free porn video 1430

Lola Taylor – Russian Pornstar ryushare uploaded keep2share

Lola Taylor – Russian Pornstar

Amateur Teen Sex 4995 ryushare uploaded keep2share

Amateur Teen Sex 4995

SONJA N – fuck my natural hairy pussy ryushare uploaded keep2share

SONJA N – fuck my natural hairy pussy

Super hot teens fuck swim pool ryushare uploaded keep2share

Super hot teens fuck swim pool

HD Porn Teen Sex Videos 225071 ryushare uploaded keep2share

HD Porn Teen Sex Videos 225071

Good Teen Tube Sexy Young Naked Girls Movies 223698 ryushare uploaded keep2share

Good Teen Tube Sexy Young Naked Girls Movies 223698

Tube Young Sex Amateur Orgy 4891 ryushare uploaded keep2share

Tube Young Sex Amateur Orgy 4891

Wow girls hd porn teens 5537 ryushare uploaded keep2share

Wow girls hd porn teens 5537

Teen Sex Videos Tube Movies 225843 ryushare uploaded keep2share

Teen Sex Videos Tube Movies 225843

seks party model porno 226206 ryushare uploaded keep2share

seks party model porno 226206

Two cocks for a teen ryushare uploaded keep2share

Two cocks for a teen

18XGirls.com Tori (aka Lola Taylor) ryushare uploaded keep2share

18XGirls.com Tori (aka Lola Taylor)

Free Teen Porn Videos at Teen Sex Tube XXX 3477 ryushare uploaded keep2share

Free Teen Porn Videos at Teen Sex Tube XXX 3477

Watch Teen Sex Videos HD 3515 ryushare uploaded keep2share

Watch Teen Sex Videos HD 3515

First time Sexual Films 18 sex xxx 225737 ryushare uploaded keep2share

First time Sexual Films 18 sex xxx 225737

Teenies Videos – Teen Porn, Teen Sex, XXX Free Videos 2648 ryushare uploaded keep2share

Teenies Videos – Teen Porn, Teen Sex, XXX Free Videos 2648

Hot Teen Sex HD videos 225101 ryushare uploaded keep2share

Hot Teen Sex HD videos 225101

PrivateSexTapes yulia anal ryushare uploaded keep2share

PrivateSexTapes yulia anal

Argentina loves showing off her nice big boobs ryushare uploaded keep2share

Argentina loves showing off her nice big boobs

Girls do porn in HD 225969 ryushare uploaded keep2share

Girls do porn in HD 225969

www xxx hd ht vidoy com 226150 ryushare uploaded keep2share

www xxx hd ht vidoy com 226150

Hd young videos 1610 ryushare uploaded keep2share

Hd young videos 1610

Porn HD Sex HD Teen Sex 2573 ryushare uploaded keep2share

Porn HD Sex HD Teen Sex 2573

Hot Teen Sex 5187 ryushare uploaded keep2share

Hot Teen Sex 5187

HD Sex World Videos High Definition Free Porn 2359 ryushare uploaded keep2share

HD Sex World Videos High Definition Free Porn 2359

HD Teens Sex Tube Videos XxX 225635 ryushare uploaded keep2share

HD Teens Sex Tube Videos XxX 225635

Young Sex Movies 2030 ryushare uploaded keep2share

Young Sex Movies 2030

Beata – Sharing A Nymph ryushare uploaded keep2share

Beata – Sharing A Nymph

Report broken links / Post a comment

You must be logged in to post a comment.



General\r\nComplete name : D:HD TeenMania Porn Sex videosxxxTNHGCKryTNHGCKry.mp4\r\nFormat : MPEG-4\r\nFormat profile : Base Media / Version 2\r\nCodec ID : mp42\r\nFile size : 407 MiB\r\nDuration : 36mn 57s\r\nOverall bit rate mode : Variable\r\nOverall bit rate : 1 540 Kbps\r\nEncoded date : UTC 2014-01-21 23:54:39\r\nTagged date : UTC 2014-01-21 23:54:39\r\nWriting library : Apple QuickTime\r\n\r\nVideo\r\nID : 1\r\nFormat : AVC\r\nFormat/Info : Advanced Video Codec\r\nFormat profile : [email protected]\r\nFormat settings, CABAC : No\r\nFormat settings, ReFrames : 6 frames\r\nCodec ID : avc1\r\nCodec ID/Info : Advanced Video Coding\r\nDuration : 36mn 57s\r\nSource duration : 36mn 57s\r\nBit rate mode : Variable\r\nBit rate : 1 438 Kbps\r\nMaximum bit rate : 1 500 Kbps\r\nWidth : 768 pixels\r\nHeight : 432 pixels\r\nDisplay aspect ratio : 16:9\r\nFrame rate mode : Constant\r\nFrame rate : 29.970 fps\r\nStandard : Component\r\nColor space : YUV\r\nChroma subsampling : 4:2:0\r\nBit depth : 8 bits\r\nScan type : Progressive\r\nBits/(Pixel*Frame) : 0.145\r\nStream size : 380 MiB (93%)\r\nSource stream size : 397 MiB (98%)\r\nEncoded date : UTC 2014-01-21 23:54:39\r\nTagged date : UTC 2014-01-20 23:56:31\r\n\r\nAudio\r\nID : 2\r\nFormat : AAC\r\nFormat/Info : Advanced Audio Codec\r\nFormat profile : LC\r\nCodec ID : 40\r\nDuration : 36mn 57s\r\nBit rate mode : Variable\r\nBit rate : 32.0 Kbps\r\nMaximum bit rate : 35.2 Kbps\r\nChannel(s) : 1 channel\r\nChannel positions : Front: C\r\nSampling rate : 32.0 KHz\r\nCompression mode : Lossy\r\nStream size : 8.46 MiB (2%)\r\nEncoded date : UTC 2014-01-21 23:54:39\r\nTagged date : UTC 2014-01-20 23:56:31\r\n\r\n