HQ Sex Movies Download 1511

Teen Sex Porn Videos Free Nude Teens 1518Young Sex Movies 1507

Posted in Amateur, HD Porn, Sex Movies, Teen | 91428 Views |


Rate this girl !!!




\r\n\r\n\r\n\r\n\r\nhttp://img56.imagetwist.com/i/05231/vuadqe2qfv0v.jpeg\r\n\r\nLink(488 Mb||18:40||1280*720||WMV)



DOWNLOAD

Keep2share.cc - Uploaded.net - Openload.co - Rapidu.net


http://keep2share.cc/file/f60b7630b0213
http://ryushare.com/x4x2valxrqon/RSKBSNsl.rar
http://ul.to/e017vogp


Premium here:
uploaded.net
keep2share.cc
rapidu.net.cc


Teens related to HQ Sex Movies Download 1511


Hot Teen Sex HD videos 1371 ryushare uploaded keep2share

Hot Teen Sex HD videos 1371

Wow girls downloads hd 224848 ryushare uploaded keep2share

Wow girls downloads hd 224848

Wow Porn Movies download) 225419 ryushare uploaded keep2share

Wow Porn Movies download) 225419

High Definition Movies on HD Teen Porn XXX Tube 2367 ryushare uploaded keep2share

High Definition Movies on HD Teen Porn XXX Tube 2367

Tube xxx 5228 ryushare uploaded keep2share

Tube xxx 5228

bf 1080p xxxx sex xxx hd bf 226698 ryushare uploaded keep2share

bf 1080p xxxx sex xxx hd bf 226698

Www hd xvideos download in 225992 ryushare uploaded keep2share

Www hd xvideos download in 225992

Hot Teen Sex HD videos 1748 ryushare uploaded keep2share

Hot Teen Sex HD videos 1748

Young Sex Movies 224761 ryushare uploaded keep2share

Young Sex Movies 224761

TrickyMasseur.com Isabeli ryushare uploaded keep2share

TrickyMasseur.com Isabeli

hq 18x video com 226250 ryushare uploaded keep2share

hq 18x video com 226250

Watch Teen Sex Videos HD 225144 ryushare uploaded keep2share

Watch Teen Sex Videos HD 225144

Teen porn xxx 225068 ryushare uploaded keep2share

Teen porn xxx 225068

Amateur Teen Sex 223903 ryushare uploaded keep2share

Amateur Teen Sex 223903

Free Teen Porn Videos at Teen Sex Tube XXX 3958 ryushare uploaded keep2share

Free Teen Porn Videos at Teen Sex Tube XXX 3958

Teens in Porno young porn videos and free teen sex 2151 ryushare uploaded keep2share

Teens in Porno young porn videos and free teen sex 2151

Teen porn movies 225949 ryushare uploaded keep2share

Teen porn movies 225949

18OnlyGirls.com / WowFandom.com Luiza (Getting Analyzed) ryushare uploaded keep2share

18OnlyGirls.com / WowFandom.com Luiza (Getting Analyzed)

Taissia – Take it slow ryushare uploaded keep2share

Taissia – Take it slow

breezer hd porn video 226339 ryushare uploaded keep2share

breezer hd porn video 226339

Teen porn xxx 225802 ryushare uploaded keep2share

Teen porn xxx 225802

Wow porn tube movies 4008 ryushare uploaded keep2share

Wow porn tube movies 4008

Sweet Teen Porn – Young Porn Videos 224820 ryushare uploaded keep2share

Sweet Teen Porn – Young Porn Videos 224820

Teen porn movies 1195 ryushare uploaded keep2share

Teen porn movies 1195

Bella Baby – Opposites Attract ryushare uploaded keep2share

Bella Baby – Opposites Attract

Teenies Videos – Teen Porn, Teen Sex, XXX Free Videos 4123 ryushare uploaded keep2share

Teenies Videos – Teen Porn, Teen Sex, XXX Free Videos 4123

xxxx clips hd ryushare uploaded keep2share

xxxx clips hd

Free Porn Videos Xxx Movies Pussy Porn 5225 ryushare uploaded keep2share

Free Porn Videos Xxx Movies Pussy Porn 5225

teen tease hdv ryushare uploaded keep2share

teen tease hdv

Young Sex Movies 2635 ryushare uploaded keep2share

Young Sex Movies 2635

[Girlfriends.XxX] Zena Little, Victoria Puppy ryushare uploaded keep2share

[Girlfriends.XxX] Zena Little, Victoria Puppy

Www xxx18yaer hd vido com 226552 ryushare uploaded keep2share

Www xxx18yaer hd vido com 226552

Sweet Teen Porn – Young Porn Videos 4630 ryushare uploaded keep2share

Sweet Teen Porn – Young Porn Videos 4630

Teen Sex Movies Young Porn Tube Vids 224457 ryushare uploaded keep2share

Teen Sex Movies Young Porn Tube Vids 224457

18yearporn hd 226684 ryushare uploaded keep2share

18yearporn hd 226684

Report broken links / Post a comment

You must be logged in to post a comment.



General\r\nComplete name : D:HD Teens Download Porn Sex clips movies Tube.xxxRSKBSNslRSKBSNsl.wmv\r\nFormat : Windows Media\r\nFile size : 488 MiB\r\nDuration : 18mn 40s\r\nOverall bit rate : 3 657 Kbps\r\nMaximum Overall bit rate : 5 128 Kbps\r\nEncoded date : UTC 1970-01-01 00:00:00.000\r\nmajor_brand : mp42\r\nminor_version : 0\r\ncompatible_brands : mp42mp41\r\nWM/EncodingSettings : Lavf54.22.100\r\n\r\nVideo\r\nID : 1\r\nFormat : WMV1\r\nCodec ID : WMV1\r\nCodec ID/Info : Windows Media Video 7\r\nDescription of the codec : wmv1\r\nDuration : 18mn 40s\r\nBit rate : 3 376 Kbps\r\nWidth : 1 280 pixels\r\nHeight : 720 pixels\r\nDisplay aspect ratio : 16:9\r\nFrame rate : 23.976 fps\r\nBit depth : 8 bits\r\nBits/(Pixel*Frame) : 0.153\r\nStream size : 451 MiB (92%)\r\n\r\nAudio\r\nID : 2\r\nFormat : WMA\r\nFormat version : Version 2\r\nCodec ID : 161\r\nCodec ID/Info : Windows Media Audio\r\nDescription of the codec : Windows Media Audio V8\r\nDuration : 18mn 40s\r\nBit rate : 128 Kbps\r\nChannel(s) : 2 channels\r\nSampling rate : 44.1 KHz\r\nBit depth : 16 bits\r\nStream size : 17.1 MiB (3%)\r\n\r\n\r\n