HQ Sex Movies Download 1850

High Definition Movies on HD Teen Porn XXX Tube 1854Good Teen Tube Sexy Young Naked Girls Movies 1845

Posted in Amateur, HD Porn, Sex Movies, Teen | 201046 Views |


Rate this girl !!!




\r\n\r\n\r\nhttp://img102.imagetwist.com/i/05288/db229tl0m6yw.jpeg\r\n\r\n Link(1.56 Gb||42:19||1280*720||MP4)



DOWNLOAD

Keep2share.cc - Uploaded.net - Openload.co - Rapidu.net


http://keep2share.cc/file/2dc0a88296fab
http://ryushare.com/hfvqz93fd0dx/TNFDHNly.rar
http://ul.to/ge3l1y2p


Premium here:
uploaded.net
keep2share.cc
rapidu.net.cc


Teens related to HQ Sex Movies Download 1850


hd vergin porn star image 226196 ryushare uploaded keep2share

hd vergin porn star image 226196

The best Teen sex 225855 ryushare uploaded keep2share

The best Teen sex 225855

Teen porn movies 3006 ryushare uploaded keep2share

Teen porn movies 3006

www wow com/yuoporn 226532 ryushare uploaded keep2share

www wow com/yuoporn 226532

Nude Teens fucking hard 5025 ryushare uploaded keep2share

Nude Teens fucking hard 5025

xxcsex video ryushare uploaded keep2share

xxcsex video

Chinara, Peachy – Cum And Be Happy ryushare uploaded keep2share

Chinara, Peachy – Cum And Be Happy

Jessica – Model Couple on Vacation ryushare uploaded keep2share

Jessica – Model Couple on Vacation

High Definition Movies on HD Teen Porn XXX Tube 3652 ryushare uploaded keep2share

High Definition Movies on HD Teen Porn XXX Tube 3652

Jassie Gold – Take Your Tisme / all sex ryushare uploaded keep2share

Jassie Gold – Take Your Tisme / all sex

Emily – A date from sugar daddy sex chat ryushare uploaded keep2share

Emily – A date from sugar daddy sex chat

Download young porn sex 5145 ryushare uploaded keep2share

Download young porn sex 5145

Wow girls porn teens 3033 ryushare uploaded keep2share

Wow girls porn teens 3033

sex hd hq download 226383 ryushare uploaded keep2share

sex hd hq download 226383

HD Teen Sex Tube 2585 ryushare uploaded keep2share

HD Teen Sex Tube 2585

Teen porn movies 223816 ryushare uploaded keep2share

Teen porn movies 223816

HD Porn Teen Sex Videos 2491 ryushare uploaded keep2share

HD Porn Teen Sex Videos 2491

Porno movies young teens lesbian 5061 ryushare uploaded keep2share

Porno movies young teens lesbian 5061

Teens 1080p hd porn 2520 ryushare uploaded keep2share

Teens 1080p hd porn 2520

Kiara Lord – Window ryushare uploaded keep2share

Kiara Lord – Window

Jessie Volt (K POV) A ryushare uploaded keep2share

Jessie Volt (K POV) A

The best Teen sex 224192 ryushare uploaded keep2share

The best Teen sex 224192

The best Teen sex 225173 ryushare uploaded keep2share

The best Teen sex 225173

HD Teen Sex Tube 225351 ryushare uploaded keep2share

HD Teen Sex Tube 225351

Monroe – Sweet And Tender ryushare uploaded keep2share

Monroe – Sweet And Tender

full 1280p xxx video 226633 ryushare uploaded keep2share

full 1280p xxx video 226633

Uploaded net porn XXX 225827 ryushare uploaded keep2share

Uploaded net porn XXX 225827

Hd young videos 2754 ryushare uploaded keep2share

Hd young videos 2754

Girls do porn downloads 3844 ryushare uploaded keep2share

Girls do porn downloads 3844

Fresh Teen Videos 2970 ryushare uploaded keep2share

Fresh Teen Videos 2970

hb sex yes com ryushare uploaded keep2share

hb sex yes com

Double Tease – All Sex ryushare uploaded keep2share

Double Tease – All Sex

Amateur Teen Sex 225702 ryushare uploaded keep2share

Amateur Teen Sex 225702

Teen Sex Videos Tube Movies 2090 ryushare uploaded keep2share

Teen Sex Videos Tube Movies 2090

Long Julie Vee movies 226110 ryushare uploaded keep2share

Long Julie Vee movies 226110

Report broken links / Post a comment

You must be logged in to post a comment.



General\r\nComplete name : D:HD Teens Download Porn Sex clips movies Tube.xxxTNFDHNlyTNFDHNly.mp4\r\nFormat : MPEG-4\r\nFormat profile : Base Media / Version 2\r\nCodec ID : mp42\r\nFile size : 1.56 GiB\r\nDuration : 42mn 19s\r\nOverall bit rate mode : Variable\r\nOverall bit rate : 5 281 Kbps\r\nEncoded date : UTC 2013-10-03 00:54:26\r\nTagged date : UTC 2013-10-03 00:54:26\r\nWriting library : Apple QuickTime\r\n\r\nVideo\r\nID : 1\r\nFormat : AVC\r\nFormat/Info : Advanced Video Codec\r\nFormat profile : [email protected]\r\nFormat settings, CABAC : No\r\nFormat settings, ReFrames : 2 frames\r\nCodec ID : avc1\r\nCodec ID/Info : Advanced Video Coding\r\nDuration : 42mn 19s\r\nSource duration : 42mn 19s\r\nBit rate : 5 119 Kbps\r\nWidth : 1 280 pixels\r\nHeight : 720 pixels\r\nDisplay aspect ratio : 16:9\r\nFrame rate mode : Constant\r\nFrame rate : 29.970 fps\r\nStandard : NTSC\r\nColor space : YUV\r\nChroma subsampling : 4:2:0\r\nBit depth : 8 bits\r\nScan type : Progressive\r\nBits/(Pixel*Frame) : 0.185\r\nStream size : 1.51 GiB (97%)\r\nSource stream size : 1.51 GiB (97%)\r\nLanguage : English\r\nEncoded date : UTC 2013-10-03 00:54:26\r\nTagged date : UTC 2013-10-03 00:54:26\r\nmdhd_Duration : 2539003\r\n\r\nAudio\r\nID : 2\r\nFormat : AAC\r\nFormat/Info : Advanced Audio Codec\r\nFormat profile : LC\r\nCodec ID : 40\r\nDuration : 42mn 18s\r\nBit rate mode : Variable\r\nBit rate : 160 Kbps\r\nMaximum bit rate : 162 Kbps\r\nChannel(s) : 2 channels\r\nChannel positions : Front: L R\r\nSampling rate : 48.0 KHz\r\nCompression mode : Lossy\r\nStream size : 48.4 MiB (3%)\r\nLanguage : English\r\nEncoded date : UTC 2013-10-03 00:54:26\r\nTagged date : UTC 2013-10-03 00:54:26\r\n\r\n