HQ Sex Movies Download 1864

Fresh Teen Videos 1868Free Porn Videos Xxx Movies Pussy Porn 1860

Posted in HD Porn, Pornstar, Sex Movies, Teen | 39398 Views |


Rate this girl !!!




\r\n\r\nhttp://img56.imagetwist.com/i/05289/i9j2lnlb56tt.jpeg\r\n\r\n Link(590 Mb||22:37||1280*720||WMV)



DOWNLOAD

Keep2share.cc - Uploaded.net - Openload.co - Rapidu.net


http://keep2share.cc/file/101d191bee057
http://ryushare.com/uaf68is1tgiy/NBGRSJsc.rar
http://ul.to/hllqa1aj


Premium here:
uploaded.net
keep2share.cc
rapidu.net.cc


Teens related to HQ Sex Movies Download 1864


Sex and lots of milk ryushare uploaded keep2share

Sex and lots of milk

18YearOld.com Alexis Adams – Blonde Teen ryushare uploaded keep2share

18YearOld.com Alexis Adams – Blonde Teen

Tube Young Sex 224974 ryushare uploaded keep2share

Tube Young Sex 224974

yes-xxx-teen-sex-movies ryushare uploaded keep2share

yes-xxx-teen-sex-movies

Hd young videos 4525 ryushare uploaded keep2share

Hd young videos 4525

Teenage Fuck Clips 1735 ryushare uploaded keep2share

Teenage Fuck Clips 1735

Young Sex Movies 4496 ryushare uploaded keep2share

Young Sex Movies 4496

Sweet Teen Porn – Young Porn Videos 224912 ryushare uploaded keep2share

Sweet Teen Porn – Young Porn Videos 224912

CastingCouch X Jayden Full HD ryushare uploaded keep2share

CastingCouch X Jayden Full HD

worldsex com mp4 hd clip ryushare uploaded keep2share

worldsex com mp4 hd clip

Veiki & Liona – Two Is Better Then One ryushare uploaded keep2share

Veiki & Liona – Two Is Better Then One

HD Teen Sex Tube 3628 ryushare uploaded keep2share

HD Teen Sex Tube 3628

Young xxx 225572 ryushare uploaded keep2share

Young xxx 225572

Free Young Porn Videos XXX Teen Porn 5208 ryushare uploaded keep2share

Free Young Porn Videos XXX Teen Porn 5208

Xxx 888 226518 ryushare uploaded keep2share

Xxx 888 226518

Holly Michaels – Picture Perfect ryushare uploaded keep2share

Holly Michaels – Picture Perfect

Elly (My Secret Lover) ryushare uploaded keep2share

Elly (My Secret Lover)

Teen Sex Porn Videos Free Nude Teens 4441 ryushare uploaded keep2share

Teen Sex Porn Videos Free Nude Teens 4441

Tube xxx 224245 ryushare uploaded keep2share

Tube xxx 224245

Wow porn tube movies 225566 ryushare uploaded keep2share

Wow porn tube movies 225566

sexy video HD down ryushare uploaded keep2share

sexy video HD down

Teen porn xxx 223773 ryushare uploaded keep2share

Teen porn xxx 223773

Ariana Marie – Babysitter ryushare uploaded keep2share

Ariana Marie – Babysitter

ClubSeventeen.com home alone teens 02 06 ryushare uploaded keep2share

ClubSeventeen.com home alone teens 02 06

Teen Sex Movies 225206 ryushare uploaded keep2share

Teen Sex Movies 225206

www ingland sexcom 226618 ryushare uploaded keep2share

www ingland sexcom 226618

Hot Teen Sex 5187 ryushare uploaded keep2share

Hot Teen Sex 5187

Teen Sex Videos Tube Movies 225164 ryushare uploaded keep2share

Teen Sex Videos Tube Movies 225164

handjob porn mp4 226429 ryushare uploaded keep2share

handjob porn mp4 226429

Good Teen Tube Sexy Young Naked Girls Movies 2535 ryushare uploaded keep2share

Good Teen Tube Sexy Young Naked Girls Movies 2535

The best Teen sex 2350 ryushare uploaded keep2share

The best Teen sex 2350

Hot hd teen sex videos 4751 ryushare uploaded keep2share

Hot hd teen sex videos 4751

8 Teen XXX – Teen Sex 1972 ryushare uploaded keep2share

8 Teen XXX – Teen Sex 1972

teen porno sites xxx ryushare uploaded keep2share

teen porno sites xxx

Girls sex art hd teens videos 225510 ryushare uploaded keep2share

Girls sex art hd teens videos 225510

Report broken links / Post a comment

You must be logged in to post a comment.



General\r\nComplete name : D:HD Teens Download Porn Sex clips movies Tube.xxxNBGRSJscNBGRSJsc.wmv\r\nFormat : Windows Media\r\nFile size : 590 MiB\r\nDuration : 22mn 37s\r\nOverall bit rate mode : Constant\r\nOverall bit rate : 3 642 Kbps\r\nMaximum Overall bit rate : 3 659 Kbps\r\nEncoded date : UTC 2008-08-15 03:58:32.370\r\nWriting application : TMPGEnc 4.0 XPress Version. 4.4.2.238\r\n\r\nVideo\r\nID : 2\r\nFormat : VC-1\r\nFormat profile : [email protected]\r\nCodec ID : WMV3\r\nCodec ID/Info : Windows Media Video 9\r\nCodec ID/Hint : WMV3\r\nDescription of the codec : Windows Media Video 9 - Professional\r\nDuration : 22mn 37s\r\nBit rate mode : Constant\r\nBit rate : 3 500 Kbps\r\nWidth : 1 280 pixels\r\nHeight : 720 pixels\r\nDisplay aspect ratio : 16:9\r\nFrame rate : 29.970 fps\r\nColor space : YUV\r\nChroma subsampling : 4:2:0\r\nBit depth : 8 bits\r\nScan type : Progressive\r\nCompression mode : Lossy\r\nBits/(Pixel*Frame) : 0.127\r\nStream size : 567 MiB (96%)\r\nLanguage : English (US)\r\n\r\nAudio\r\nID : 1\r\nFormat : WMA\r\nFormat version : Version 2\r\nCodec ID : 161\r\nCodec ID/Info : Windows Media Audio\r\nDescription of the codec : Windows Media Audio 9 - 128 kbps, 48 kHz, stereo 1-pass CBR\r\nDuration : 22mn 37s\r\nBit rate mode : Constant\r\nBit rate : 128 Kbps\r\nChannel(s) : 2 channels\r\nSampling rate : 48.0 KHz\r\nBit depth : 16 bits\r\nStream size : 20.7 MiB (4%)\r\nLanguage : English (US)\r\n\r\n