Innocent Young Blonde Gets Fucked For The First Time on Cam

Big Birthday Party Fuck in IbizaDelicious tiny teen

Posted in Amateur, HD Porn, Sex Movies, Teen | 15491 Views |


Rate this girl !!!




Innocent Young Blonde Gets Fucked For The First Time on Cam\r\n\r\nInnocent Young Blonde Gets Fucked For The First Time on Cam\r\n\r\n\r\nFile: Innocent Young Blonde Gets Fucked For The First Time on Cam.wmv\r\nSize: 877555779 bytes (836.90 MiB), duration: 00:22:09, avg.bitrate: 5283 kb/s\r\nAudio: wmav2, 44100 Hz, 2 channels, s16, 256 kb/s (eng)\r\nVideo: vc1, yuv420p, 1440×810, 5000 kb/s, 25.00 fps(r) (eng)\r\n



DOWNLOAD

Keep2share.cc - Uploaded.net - Openload.co - Rapidu.net


http://ryushare.com/1e1ab1c40554/Inn0c3nt.on.C4m.rar
http://keep2share.cc/file/5274673e94ca9
http://ul.to/y7njhfi7


Premium here:
uploaded.net
keep2share.cc
rapidu.net.cc

Teens related to Innocent Young Blonde Gets Fucked For The First Time on Cam


Porn HD Sex HD Teen Sex 224487 ryushare uploaded keep2share

Porn HD Sex HD Teen Sex 224487

www //Yang girl fuck hd com 226331 ryushare uploaded keep2share

www //Yang girl fuck hd com 226331

HQ Sex Movies Download 3382 ryushare uploaded keep2share

HQ Sex Movies Download 3382

pc free porn hd ryushare uploaded keep2share

pc free porn hd

Hd blonde bang 226409 ryushare uploaded keep2share

Hd blonde bang 226409

www video9 in 226088 ryushare uploaded keep2share

www video9 in 226088

Teen Porn XXX Tube 225857 ryushare uploaded keep2share

Teen Porn XXX Tube 225857

Two cocks for a teen ryushare uploaded keep2share

Two cocks for a teen

Jenny Simons – At The Right Time ryushare uploaded keep2share

Jenny Simons – At The Right Time

Young teens tube hot girls free porn video 5384 ryushare uploaded keep2share

Young teens tube hot girls free porn video 5384

Jungle Fever – Beata, Anjelica ryushare uploaded keep2share

Jungle Fever – Beata, Anjelica

NubileFilms.com Kacy Lane – Sexual Tension ryushare uploaded keep2share

NubileFilms.com Kacy Lane – Sexual Tension

HD Teen Sex Tube 1620 ryushare uploaded keep2share

HD Teen Sex Tube 1620

Wow Porn Movies download) 225133 ryushare uploaded keep2share

Wow Porn Movies download) 225133

Sabrina L – Sabrina Flirting With Her Personal Trainer ryushare uploaded keep2share

Sabrina L – Sabrina Flirting With Her Personal Trainer

Free High Quality Sex Movies 5278 ryushare uploaded keep2share

Free High Quality Sex Movies 5278

Hot sex girls movies download 2609 ryushare uploaded keep2share

Hot sex girls movies download 2609

anysex free video com ryushare uploaded keep2share

anysex free video com

Carmen Fox – Fucked by the best client ryushare uploaded keep2share

Carmen Fox – Fucked by the best client

Porn party teen girls 224921 ryushare uploaded keep2share

Porn party teen girls 224921

2016 hd vizyon sexy cd filmler ryushare uploaded keep2share

2016 hd vizyon sexy cd filmler

Porn teen hd downloads 5256 ryushare uploaded keep2share

Porn teen hd downloads 5256

Wow porn tube movies 3516 ryushare uploaded keep2share

Wow porn tube movies 3516

[RylskyArt.com] Gia – Shadows ryushare uploaded keep2share

[RylskyArt.com] Gia – Shadows

Girls do porn in HD 224797 ryushare uploaded keep2share

Girls do porn in HD 224797

www hdsexse vidio 226293 ryushare uploaded keep2share

www hdsexse vidio 226293

Free Teen Porn Videos at Teen Sex Tube XXX 225611 ryushare uploaded keep2share

Free Teen Porn Videos at Teen Sex Tube XXX 225611

download free 720 porn videos ryushare uploaded keep2share

download free 720 porn videos

Hardcore Sex Hub 225938 ryushare uploaded keep2share

Hardcore Sex Hub 225938

The best Teen sex 224742 ryushare uploaded keep2share

The best Teen sex 224742

Teenage Fuck Clips 4003 ryushare uploaded keep2share

Teenage Fuck Clips 4003

Hot Teen Sex HD videos 1679 ryushare uploaded keep2share

Hot Teen Sex HD videos 1679

Dreams-HD.com Nikka ryushare uploaded keep2share

Dreams-HD.com Nikka

Tube Young Sex 224693 ryushare uploaded keep2share

Tube Young Sex 224693

Teen Sex Movies 4310 ryushare uploaded keep2share

Teen Sex Movies 4310

Report broken links / Post a comment

You must be logged in to post a comment.



General\r\nComplete name : H:HD TEENS PORNDOWNLOADRYUSHAREUPLOADEDKEEP2SHAREInnocent Young Blonde Gets Fucked For The First Time on Cam.wmv\r\nFormat : Windows Media\r\nFile size : 837 MiB\r\nDuration : 22mn 9s\r\nOverall bit rate mode : Constant\r\nOverall bit rate : 5 281 Kbps\r\nMaximum Overall bit rate : 5 285 Kbps\r\nEncoded date : UTC 2010-11-17 19:46:36.429\r\n\r\nVideo\r\nID : 2\r\nFormat : VC-1\r\nFormat profile : [email protected]\r\nCodec ID : WVC1\r\nCodec ID/Hint : Microsoft\r\nDescription of the codec : Windows Media Video 9 Advanced Profile\r\nDuration : 22mn 9s\r\nBit rate mode : Constant\r\nBit rate : 5 000 Kbps\r\nWidth : 1 440 pixels\r\nHeight : 810 pixels\r\nDisplay aspect ratio : 16:9\r\nFrame rate : 25.000 fps\r\nChroma subsampling : 4:2:0\r\nBit depth : 8 bits\r\nScan type : Progressive\r\nCompression mode : Lossy\r\nBits/(Pixel*Frame) : 0.171\r\nStream size : 792 MiB (95%)\r\nLanguage : English (US)\r\n\r\nAudio\r\nID : 1\r\nFormat : WMA\r\nFormat version : Version 2\r\nCodec ID : 161\r\nCodec ID/Info : Windows Media Audio\r\nDescription of the codec : Windows Media Audio 9.2 - 256 kbps, 44 kHz, stereo 1-pass CBR\r\nDuration : 22mn 9s\r\nBit rate mode : Constant\r\nBit rate : 256 Kbps\r\nChannel(s) : 2 channels\r\nSampling rate : 44.1 KHz\r\nBit depth : 16 bits\r\nStream size : 40.6 MiB (5%)\r\nLanguage : English (US)