Irina hot teen

Katie Jordin - Morning AffairTeeny Tini Striptease

Posted in HD Porn, Sex Movies, Teen, Threesome | 15198 Views |


Rate this girl !!!




Irina doublepenetration\r\n\r\nporn-sex-teens-hd-thumb-2013-11-07-19h24m35s154\r\n\r\nporn-sex-teens-hd-thumb-2013-11-07-19h25m10s227\r\n\r\nIrina hot teen\r\n\r\n\r\nFile: Irina hot teen.wmv\r\nSize: 974551027 bytes (929.40 MiB), duration: 00:26:30, avg.bitrate: 4903 kb/s\r\nAudio: wmapro, 44100 Hz, 2 channels, s16, 128 kb/s\r\nVideo: vc1, yuv420p, 1920×1080, 4750 kb/s, 29.97 fps(r)\r\n\r\n\r\n



DOWNLOAD

Keep2share.cc - Uploaded.net - Openload.co - Rapidu.net


http://ryushare.com/3b354665e1bd/Ir1n4.h0t.rar\nhttp://keep2share.cc/file/527c5a56b6fe7\nhttp://turbobit.net/6vqj8msk4lix.html\nhttp://ul.to/hyg9wx5k


Premium here:
uploaded.net
keep2share.cc
rapidu.net.cc

Teens related to Irina hot teen


Teen Tits Tube, Young Girls Porn Videos 2547 ryushare uploaded keep2share

Teen Tits Tube, Young Girls Porn Videos 2547

Free Teen Porn Videos at Teen Sex Tube XXX 5378 ryushare uploaded keep2share

Free Teen Porn Videos at Teen Sex Tube XXX 5378

Free High Quality Sex Movies 225699 ryushare uploaded keep2share

Free High Quality Sex Movies 225699

www yes video xxx com 226468 ryushare uploaded keep2share

www yes video xxx com 226468

www 18porn com/hot hd video 226736 ryushare uploaded keep2share

www 18porn com/hot hd video 226736

Tube xxx 223693 ryushare uploaded keep2share

Tube xxx 223693

First time Sexual Films 18 sex xxx 4745 ryushare uploaded keep2share

First time Sexual Films 18 sex xxx 4745

Teenage Fuck Clips 5122 ryushare uploaded keep2share

Teenage Fuck Clips 5122

HD Teens Sex Tube Videos XxX 225345 ryushare uploaded keep2share

HD Teens Sex Tube Videos XxX 225345

Fresh Teen Videos 3763 ryushare uploaded keep2share

Fresh Teen Videos 3763

Nude Teens fucking hard 4300 ryushare uploaded keep2share

Nude Teens fucking hard 4300

HD Porn Teen Sex Videos 1479 ryushare uploaded keep2share

HD Porn Teen Sex Videos 1479

XXX young porn sex 3841 ryushare uploaded keep2share

XXX young porn sex 3841

Hot brunette – blowjob and fucked ryushare uploaded keep2share

Hot brunette – blowjob and fucked

hd short heighted pron movies 226316 ryushare uploaded keep2share

hd short heighted pron movies 226316

Tracy Smile ryushare uploaded keep2share

Tracy Smile

Free High Quality Sex Movies 1698 ryushare uploaded keep2share

Free High Quality Sex Movies 1698

HD Porn Teen Sex Videos 2979 ryushare uploaded keep2share

HD Porn Teen Sex Videos 2979

Paula Shy – AfterParty – Sex Art ryushare uploaded keep2share

Paula Shy – AfterParty – Sex Art

very low size hd porn videos ryushare uploaded keep2share

very low size hd porn videos

Free Teen Porn Videos at Teen Sex Tube XXX 5546 ryushare uploaded keep2share

Free Teen Porn Videos at Teen Sex Tube XXX 5546

HQ Sex Movies Download 225044 ryushare uploaded keep2share

HQ Sex Movies Download 225044

www 18year grils sex vedios 226269 ryushare uploaded keep2share

www 18year grils sex vedios 226269

Teenage Fuck Clips 2643 ryushare uploaded keep2share

Teenage Fuck Clips 2643

HD Porn Videos 4330 ryushare uploaded keep2share

HD Porn Videos 4330

Teens in Porno young porn videos and free teen sex 5650 ryushare uploaded keep2share

Teens in Porno young porn videos and free teen sex 5650

Young Sex Movies 5695 ryushare uploaded keep2share

Young Sex Movies 5695

TrickyMasseur.com Aline ryushare uploaded keep2share

TrickyMasseur.com Aline

HD Porn Teen Sex Videos 4207 ryushare uploaded keep2share

HD Porn Teen Sex Videos 4207

Gina Gerson – A Dream Of You ryushare uploaded keep2share

Gina Gerson – A Dream Of You

hard fuck hd image download 226631 ryushare uploaded keep2share

hard fuck hd image download 226631

www pinkwordcom 226327 ryushare uploaded keep2share

www pinkwordcom 226327

HD Teens Sex Tube Videos XxX 5400 ryushare uploaded keep2share

HD Teens Sex Tube Videos XxX 5400

WowPorn.com Michelle,The Primal Need For Love. RED ryushare uploaded keep2share

WowPorn.com Michelle,The Primal Need For Love. RED

Hardcore Sex Hub 224876 ryushare uploaded keep2share

Hardcore Sex Hub 224876

Report broken links / Post a comment

You must be logged in to post a comment.



General\r\nComplete name : H:HD Porn/Direct Download/New releases/Irina hot teen.wmv\r\nFormat : Windows Media\r\nFile size : 929 MiB\r\nDuration : 26mn 30s\r\nOverall bit rate mode : Variable\r\nOverall bit rate : 4 902 Kbps\r\nMaximum Overall bit rate : 7 080 Kbps\r\nEncoded date : UTC 2012-11-29 04:47:38.448\r\nEncoded_With : Sorenson Squeeze\r\n\r\nVideo\r\nID : 31\r\nFormat : VC-1\r\nFormat profile : [email protected]\r\nCodec ID : WVC1\r\nCodec ID/Hint : Microsoft\r\nDescription of the codec : Windows Media Video 9 Advanced Profile\r\nDuration : 26mn 30s\r\nBit rate mode : Variable\r\nBit rate : 4 750 Kbps\r\nWidth : 1 920 pixels\r\nHeight : 1 080 pixels\r\nDisplay aspect ratio : 16:9\r\nFrame rate : 29.970 fps\r\nChroma subsampling : 4:2:0\r\nBit depth : 8 bits\r\nScan type : Progressive\r\nCompression mode : Lossy\r\nBits/(Pixel*Frame) : 0.076\r\nStream size : 901 MiB (97%)\r\n\r\nAudio\r\nID : 1\r\nFormat : WMA\r\nFormat profile : Pro\r\nCodec ID : 162\r\nCodec ID/Info : Windows Media Audio\r\nDescription of the codec : Windows Media Audio 10 Professional - 128 kbps, 44 kHz, 2 channel 24 bit (A/V) 1-pass CBR\r\nDuration : 26mn 30s\r\nBit rate mode : Constant\r\nBit rate : 128 Kbps\r\nChannel(s) : 2 channels\r\nSampling rate : 44.1 KHz\r\nBit depth : 24 bits\r\nStream size : 24.3 MiB (3%)\r\n\r\n