Jada – A Manwhore For Me

Jassie Gold – Hardcore FuckingMaddy O’Reilly – Heat wave

Posted in Amateur, HD Porn, Sex Movies, Teen | 12541 Views |


Rate this girl !!!




[18OnlyGirls.com] Jada – A Manwhore For Me

\r\n

cover

\r\n

1920x1080p / MP4 / 1.27 GB

\r\n

SCREENSHOTS:

\r\n

screens



DOWNLOAD

Keep2share.cc - Uploaded.net - Openload.co - Rapidu.net


http://fileom.com/j90dzrwi0bbj/A_Manw.hore_For_Me_HD1080.mp4.html
http://k2s.cc/file/7a2665a0885cc/A_Manw.hore_For_Me_HD1080.mp4
http://ul.to/3dkqgnpn/A_Manw.hore_For_Me_HD1080.mp4


Premium here:
uploaded.net
keep2share.cc
rapidu.net.cc

Teens related to Jada – A Manwhore For Me


Movies Young legal porn 4979 ryushare uploaded keep2share

Movies Young legal porn 4979

titshed net tube 226095 ryushare uploaded keep2share

titshed net tube 226095

Big tits blonde with pierced nipples ryushare uploaded keep2share

Big tits blonde with pierced nipples

Free High Quality Sex Movies 223962 ryushare uploaded keep2share

Free High Quality Sex Movies 223962

teen xxx video hd dowalona ryushare uploaded keep2share

teen xxx video hd dowalona

Marry – Time To Myself – Nubiles ryushare uploaded keep2share

Marry – Time To Myself – Nubiles

Good Teen Tube Sexy Young Naked Girls Movies 223698 ryushare uploaded keep2share

Good Teen Tube Sexy Young Naked Girls Movies 223698

Young Sex Movies 225934 ryushare uploaded keep2share

Young Sex Movies 225934

Teens in Porno young porn videos and free teen sex 225503 ryushare uploaded keep2share

Teens in Porno young porn videos and free teen sex 225503

teen tease hdv ryushare uploaded keep2share

teen tease hdv

Free Porn Videos Xxx Movies Pussy Porn 224680 ryushare uploaded keep2share

Free Porn Videos Xxx Movies Pussy Porn 224680

HD Sex World Videos High Definition Free Porn 1554 ryushare uploaded keep2share

HD Sex World Videos High Definition Free Porn 1554

Wow porn hd downloads 224896 ryushare uploaded keep2share

Wow porn hd downloads 224896

teen porn at pinkworld ryushare uploaded keep2share

teen porn at pinkworld

hd sexy porn star video ryushare uploaded keep2share

hd sexy porn star video

new porn video pc hd download ryushare uploaded keep2share

new porn video pc hd download

First time Sexual Films 18 sex xxx 3689 ryushare uploaded keep2share

First time Sexual Films 18 sex xxx 3689

High Definition Movies on HD 4040 ryushare uploaded keep2share

High Definition Movies on HD 4040

HD Teens Sex Tube Videos XxX 4315 ryushare uploaded keep2share

HD Teens Sex Tube Videos XxX 4315

Hot hd teen sex videos 3912 ryushare uploaded keep2share

Hot hd teen sex videos 3912

HD Porn Teen Sex Videos 5198 ryushare uploaded keep2share

HD Porn Teen Sex Videos 5198

Young legal porn clips 4613 ryushare uploaded keep2share

Young legal porn clips 4613

College Teen Sex 225693 ryushare uploaded keep2share

College Teen Sex 225693

Teen xxx sex hd 225384 ryushare uploaded keep2share

Teen xxx sex hd 225384

Young teens tube hot girls free porn video 5527 ryushare uploaded keep2share

Young teens tube hot girls free porn video 5527

HD Porn Video 1352 ryushare uploaded keep2share

HD Porn Video 1352

Teens in Porno young porn videos and free teen sex 2151 ryushare uploaded keep2share

Teens in Porno young porn videos and free teen sex 2151

Wow Girls Porn Clips download 224301 ryushare uploaded keep2share

Wow Girls Porn Clips download 224301

Free Young Porn Videos XXX Teen Porn 224223 ryushare uploaded keep2share

Free Young Porn Videos XXX Teen Porn 224223

kyra hot and kiara lord klixen three teasing tongues 226098 ryushare uploaded keep2share

kyra hot and kiara lord klixen three teasing tongues 226098

Chinese videos in high definition quality 2480 ryushare uploaded keep2share

Chinese videos in high definition quality 2480

Tube xxx 225500 ryushare uploaded keep2share

Tube xxx 225500

telar with girls sexe video you tube 226766 ryushare uploaded keep2share

telar with girls sexe video you tube 226766

www xxxnewvideo hd com ryushare uploaded keep2share

www xxxnewvideo hd com

wow grils ryushare uploaded keep2share

wow grils

Report broken links / Post a comment

You must be logged in to post a comment.



General\r\nComplete name : D:[18OnlyGirls.com] Jada – A Manwhore For Me.mp4\r\nFormat : MPEG-4\r\nFormat profile : Base Media\r\nCodec ID : isom\r\nFile size : 1.27 GiB\r\nDuration : 24mn 32s\r\nOverall bit rate mode : Variable\r\nOverall bit rate : 7 409 Kbps\r\nEncoded date : UTC 1970-01-01 00:00:00\r\nTagged date : UTC 1970-01-01 00:00:00\r\nWriting application : Lavf52.64.2\r\n\r\nVideo\r\nID : 1\r\nFormat : AVC\r\nFormat/Info : Advanced Video Codec\r\nFormat profile : [email protected]\r\nFormat settings, CABAC : Yes\r\nFormat settings, ReFrames : 2 frames\r\nCodec ID : avc1\r\nCodec ID/Info : Advanced Video Coding\r\nDuration : 24mn 32s\r\nBit rate : 7 253 Kbps\r\nWidth : 1 920 pixels\r\nHeight : 1 080 pixels\r\nDisplay aspect ratio : 16:9\r\nFrame rate mode : Constant\r\nFrame rate : 29.970 fps\r\nColor space : YUV\r\nChroma subsampling : 4:2:0\r\nBit depth : 8 bits\r\nScan type : Progressive\r\nBits/(Pixel*Frame) : 0.117\r\nStream size : 1.24 GiB (98%)\r\nWriting library : x264 core 102 r1666 d058f37\r\nEncoding settings : cabac=1 / ref=2 / deblock=1:0:0 / analyse=0x3:0x113 / me=hex / subme=6 / psy=1 / psy_rd=1.00:0.00 / mixed_ref=0 / me_range=16 / chroma_me=1 / trellis=0 / 8x8dct=1 / cqm=0 / deadzone=21,11 / fast_pskip=1 / chroma_qp_offset=-2 / threads=24 / sliced_threads=0 / nr=0 / decimate=1 / interlaced=0 / constrained_intra=0 / bframes=3 / b_pyramid=0 / b_adapt=1 / b_bias=0 / direct=3 / weightb=1 / open_gop=0 / weightp=2 / keyint=250 / keyint_min=25 / scenecut=40 / intra_refresh=0 / rc_lookahead=40 / rc=crf / mbtree=1 / crf=20.0 / qcomp=0.60 / qpmin=10 / qpmax=51 / qpstep=4 / ip_ratio=1.41 / aq=1:1.00\r\nEncoded date : UTC 1970-01-01 00:00:00\r\nTagged date : UTC 1970-01-01 00:00:00\r\n\r\nAudio\r\nID : 2\r\nFormat : AAC\r\nFormat/Info : Advanced Audio Codec\r\nFormat profile : LC\r\nCodec ID : 40\r\nDuration : 24mn 32s\r\nBit rate mode : Variable\r\nBit rate : 151 Kbps\r\nChannel(s) : 2 channels\r\nChannel positions : Front: L R\r\nSampling rate : 44.1 KHz\r\nCompression mode : Lossy\r\nStream size : 26.6 MiB (2%)\r\nEncoded date : UTC 1970-01-01 00:00:00\r\nTagged date : UTC 1970-01-01 00:00:00\r\n\r\n