Jenny Glam – Who’s My Good Girl?

Clara and Laura. Playful collaborationSandy Sweet & Jessica Valentino

Posted in Amateur, HD Porn, Sex Movies, Teen | 13526 Views |


Rate this girl !!!




[PixAndVideo.com / 21Sextury.com] Jenny Glam – Who’s My Good Girl? (13.09.2014 г.) [All Sex, Hardcore] [1080p]

\r\n

\r\n

Jenny Glam – Who’s My Good Girl?picpic

\r\n

Video format: mp4\r\nTime: 00:26:25\r\nVideo: AVC; 1920×1080 (16: 9); 6012 Kbps; 25 fps; 0,116 bpp\r\nAudio: English; AAC LC; 192 Kbps; VBR; 2 ch



DOWNLOAD

Keep2share.cc - Uploaded.net - Openload.co - Rapidu.net


http://k2s.cc/file/f61d7bf4113a0/200458.1080p.mp4

http://ul.to/ye8bw5ym/200458.1080p.mp4


Premium here:
uploaded.net
keep2share.cc
rapidu.net.cc


Teens related to Jenny Glam – Who’s My Good Girl?


www xxx hot 99 com 226355 ryushare uploaded keep2share

www xxx hot 99 com 226355

romentic hd pornmovie download 226723 ryushare uploaded keep2share

romentic hd pornmovie download 226723

18YearsOld.com Alli Ray – Blindfold My Baby ryushare uploaded keep2share

18YearsOld.com Alli Ray – Blindfold My Baby

JoyMii.com Lara – Getting Laid ryushare uploaded keep2share

JoyMii.com Lara – Getting Laid

Teen 18 Porn XXX Clips Naked 3465 ryushare uploaded keep2share

Teen 18 Porn XXX Clips Naked 3465

HD Porn Teen Sex Videos 4693 ryushare uploaded keep2share

HD Porn Teen Sex Videos 4693

sex xxx con 226363 ryushare uploaded keep2share

sex xxx con 226363

Teen porn xxx 5502 ryushare uploaded keep2share

Teen porn xxx 5502

www sex video hdfast time 226460 ryushare uploaded keep2share

www sex video hdfast time 226460

AbbyWinters.com – Carmina & Pablo ryushare uploaded keep2share

AbbyWinters.com – Carmina & Pablo

Teen Sex Porn Videos Free Nude Teens 3671 ryushare uploaded keep2share

Teen Sex Porn Videos Free Nude Teens 3671

Good Teen Tube Sexy Young Naked Girls Movies 223698 ryushare uploaded keep2share

Good Teen Tube Sexy Young Naked Girls Movies 223698

Movies Young legal porn 224470 ryushare uploaded keep2share

Movies Young legal porn 224470

apetubegirls ryushare uploaded keep2share

apetubegirls

Watch Teen Sex Videos HD 4869 ryushare uploaded keep2share

Watch Teen Sex Videos HD 4869

Viola Paige – Intense Feelings ryushare uploaded keep2share

Viola Paige – Intense Feelings

Natali – PublicAgent ryushare uploaded keep2share

Natali – PublicAgent

www english xxx videos hd com 226742 ryushare uploaded keep2share

www english xxx videos hd com 226742

XXX/H/XX/ ryushare uploaded keep2share

XXX/H/XX/

HD Porn Video 1455 ryushare uploaded keep2share

HD Porn Video 1455

hd short heighted pron movies 226316 ryushare uploaded keep2share

hd short heighted pron movies 226316

Teen porn movies 2618 ryushare uploaded keep2share

Teen porn movies 2618

Teen porn movies 1676 ryushare uploaded keep2share

Teen porn movies 1676

8 Teen XXX – Teen Sex 4481 ryushare uploaded keep2share

8 Teen XXX – Teen Sex 4481

Cecilia, Vanda – Everlasting Love ryushare uploaded keep2share

Cecilia, Vanda – Everlasting Love

Hot Teen Sex HD videos 2425 ryushare uploaded keep2share

Hot Teen Sex HD videos 2425

xxx new move hQ dawonlod ryushare uploaded keep2share

xxx new move hQ dawonlod

Sweet Teen Porn – Young Porn Videos 1409 ryushare uploaded keep2share

Sweet Teen Porn – Young Porn Videos 1409

Naomi Nevena ryushare uploaded keep2share

Naomi Nevena

www littile pussy hdmp4 com 226115 ryushare uploaded keep2share

www littile pussy hdmp4 com 226115

fucking pix hd download ryushare uploaded keep2share

fucking pix hd download

College Teen Sex 3576 ryushare uploaded keep2share

College Teen Sex 3576

Hardcore sex videos in the high definition quality 2374 ryushare uploaded keep2share

Hardcore sex videos in the high definition quality 2374

www 18 xxxvids com 226627 ryushare uploaded keep2share

www 18 xxxvids com 226627

Young XXX Tube Videos 2812 ryushare uploaded keep2share

Young XXX Tube Videos 2812

Report broken links / Post a comment

You must be logged in to post a comment.



General\r\nComplete name : D:hd teens porn download free online[PixAndVideo.com / 21Sextury.com] Jenny Glam - Who's My Good Girl? (13.09.2014 г.) [All Sex, Hardcore] [1080p].1080p.mp4\r\nFormat : MPEG-4\r\nFormat profile : Base Media / Version 2\r\nCodec ID : mp42\r\nFile size : 1.15 GiB\r\nDuration : 26mn 25s\r\nOverall bit rate mode : Variable\r\nOverall bit rate : 6 206 Kbps\r\nEncoded date : UTC 2014-09-12 23:37:54\r\nTagged date : UTC 2014-09-12 23:37:54\r\n\r\nVideo\r\nID : 1\r\nFormat : AVC\r\nFormat/Info : Advanced Video Codec\r\nFormat profile : [email protected]\r\nFormat settings, CABAC : Yes\r\nFormat settings, ReFrames : 4 frames\r\nCodec ID : avc1\r\nCodec ID/Info : Advanced Video Coding\r\nDuration : 26mn 25s\r\nBit rate : 6 012 Kbps\r\nWidth : 1 920 pixels\r\nHeight : 1 080 pixels\r\nDisplay aspect ratio : 16:9\r\nFrame rate mode : Constant\r\nFrame rate : 25.000 fps\r\nStandard : PAL\r\nColor space : YUV\r\nChroma subsampling : 4:2:0\r\nBit depth : 8 bits\r\nScan type : Progressive\r\nBits/(Pixel*Frame) : 0.116\r\nStream size : 1.11 GiB (97%)\r\nLanguage : English\r\nEncoded date : UTC 2014-09-12 23:37:54\r\nTagged date : UTC 2014-09-12 23:37:54\r\nColor primaries : BT.709\r\nTransfer characteristics : BT.709\r\nMatrix coefficients : BT.709\r\n\r\nAudio\r\nID : 2\r\nFormat : AAC\r\nFormat/Info : Advanced Audio Codec\r\nFormat profile : LC\r\nCodec ID : 40\r\nDuration : 26mn 25s\r\nBit rate mode : Variable\r\nBit rate : 192 Kbps\r\nMaximum bit rate : 261 Kbps\r\nChannel(s) : 2 channels\r\nChannel positions : Front: L R\r\nSampling rate : 48.0 KHz\r\nCompression mode : Lossy\r\nStream size : 35.8 MiB (3%)\r\nLanguage : English\r\nEncoded date : UTC 2014-09-12 23:37:54\r\nTagged date : UTC 2014-09-12 23:37:54\r\n\r\n