Join The Fun – WowGirls

Karol Lilien - Sounds Of PassionTeenies Videos - Teen Porn, Teen Sex, XXX Free Videos 1152

Posted in Amateur, HD Porn, Sex Movies, Teen, Threesome | 38429 Views |


Rate this girl !!!




[WowGirls.com / WowFandom.com] Nancey, Anjelica, Aimee Ryan, Valeria A and Linda – Join The Fun (03.01.2014 g) [Lesbians, Group, Teens, Outdoorssch \r\n\r\npic\r\n\r\nJoin The Background\r\nScenes and Saytripy with Russian actresses / Russian Movie\r\n\r\nVideo Format: MP4\r\nDuration: 00:22:38\r\nVideo: AVC; 852×480 (16:9); 2014 Kbps; 29,970 fps; 0,164 bpp\r\nAudio: AAC LC; 151 Kbps; VBR; 2 ch\r\n\r\nJoinTheFun_SD.mp4



DOWNLOAD

Keep2share.cc - Uploaded.net - Openload.co - Rapidu.net


http://ryushare.com/vh7z6eavrbq6/Jo.inTh.eF.un_SD.mp4
http://k2s.cc/file/a946aee180aab/Jo.inTh.eF.un_SD.mp4
http://ul.to/l2x2qjly
http://keep2share.cc/file/52e70529169e1


Premium here:
uploaded.net
keep2share.cc
rapidu.net.cc

Teens related to Join The Fun – WowGirls


www 18years sex videos hd ryushare uploaded keep2share

www 18years sex videos hd

wow girl outdor besd hd porn vedio dawunlod 2015 ryushare uploaded keep2share

wow girl outdor besd hd porn vedio dawunlod 2015

The best Teen sex 1220 ryushare uploaded keep2share

The best Teen sex 1220

Kail Takes on Two Horny Studs for some fun ryushare uploaded keep2share

Kail Takes on Two Horny Studs for some fun

edge orgasm ryushare uploaded keep2share

edge orgasm

HD porn uploaded 3712 ryushare uploaded keep2share

HD porn uploaded 3712

Wow porn tube movies 5631 ryushare uploaded keep2share

Wow porn tube movies 5631

CastingCouch X Jayden Full HD ryushare uploaded keep2share

CastingCouch X Jayden Full HD

purn 720 com ryushare uploaded keep2share

purn 720 com

Teen Sex Movies 3831 ryushare uploaded keep2share

Teen Sex Movies 3831

Hot Teen Sex HD videos 1883 ryushare uploaded keep2share

Hot Teen Sex HD videos 1883

sexy video9 hd xxx in 226643 ryushare uploaded keep2share

sexy video9 hd xxx in 226643

www hdsexy xxx 226508 ryushare uploaded keep2share

www hdsexy xxx 226508

Watch Teen Sex Videos HD 225256 ryushare uploaded keep2share

Watch Teen Sex Videos HD 225256

Clubseventeen 507 Mb 226566 ryushare uploaded keep2share

Clubseventeen 507 Mb 226566

8 Teen XXX – Teen Sex 3479 ryushare uploaded keep2share

8 Teen XXX – Teen Sex 3479

Teen porn movies 1954 ryushare uploaded keep2share

Teen porn movies 1954

Teenies Videos – Teen Porn, Teen Sex, XXX Free Videos 5072 ryushare uploaded keep2share

Teenies Videos – Teen Porn, Teen Sex, XXX Free Videos 5072

MP4 Russian blonde teen sex download video ryushare uploaded keep2share

MP4 Russian blonde teen sex download video

1280*720hd sex vídeo com ryushare uploaded keep2share

1280*720hd sex vídeo com

Movies Young legal porn 224470 ryushare uploaded keep2share

Movies Young legal porn 224470

Two cocks for a teen ryushare uploaded keep2share

Two cocks for a teen

College Teen Sex 1987 ryushare uploaded keep2share

College Teen Sex 1987

www hd xxxxxx bideos com 226676 ryushare uploaded keep2share

www hd xxxxxx bideos com 226676

Teen porn movies 2225 ryushare uploaded keep2share

Teen porn movies 2225

Free High Quality Sex Movies 225016 ryushare uploaded keep2share

Free High Quality Sex Movies 225016

Xxxsexvidoa comhd ryushare uploaded keep2share

Xxxsexvidoa comhd

College Teen Sex 1898 ryushare uploaded keep2share

College Teen Sex 1898

HD Porn Video 2499 ryushare uploaded keep2share

HD Porn Video 2499

Free High Quality Sex Movies 5278 ryushare uploaded keep2share

Free High Quality Sex Movies 5278

GirlsDoPorn E230 18 Years Old ryushare uploaded keep2share

GirlsDoPorn E230 18 Years Old

Teen porn movies 3950 ryushare uploaded keep2share

Teen porn movies 3950

ww pink world net ryushare uploaded keep2share

ww pink world net

Chinara, Peachy – Cum And Be Happy ryushare uploaded keep2share

Chinara, Peachy – Cum And Be Happy

Young Virgin Pussy Teen Fuck Tube 1916 ryushare uploaded keep2share

Young Virgin Pussy Teen Fuck Tube 1916

Report broken links / Post a comment

You must be logged in to post a comment.



General\r\nComplete name : D:Join The Fun - WowGirlsJoinTheFun_SD.mp4\r\nFormat : MPEG-4\r\nFormat profile : Base Media\r\nCodec ID : isom\r\nFile size : 352 MiB\r\nDuration : 22mn 38s\r\nOverall bit rate mode : Variable\r\nOverall bit rate : 2 173 Kbps\r\nWriting application : Lavf52.64.2\r\nComment : Download from HDteenmania.com\r\n\r\nVideo\r\nID : 1\r\nFormat : AVC\r\nFormat/Info : Advanced Video Codec\r\nFormat profile : [email protected]\r\nFormat settings, CABAC : Yes\r\nFormat settings, ReFrames : 2 frames\r\nCodec ID : avc1\r\nCodec ID/Info : Advanced Video Coding\r\nDuration : 22mn 38s\r\nBit rate : 2 014 Kbps\r\nWidth : 852 pixels\r\nHeight : 480 pixels\r\nDisplay aspect ratio : 16:9\r\nFrame rate mode : Constant\r\nFrame rate : 29.970 fps\r\nColor space : YUV\r\nChroma subsampling : 4:2:0\r\nBit depth : 8 bits\r\nScan type : Progressive\r\nBits/(Pixel*Frame) : 0.164\r\nStream size : 326 MiB (93%)\r\nWriting library : x264 core 107\r\nEncoding settings : cabac=1 / ref=2 / deblock=1:0:0 / analyse=0x3:0x113 / me=hex / subme=6 / psy=1 / psy_rd=1.00:0.00 / mixed_ref=0 / me_range=16 / chroma_me=1 / trellis=0 / 8x8dct=1 / cqm=0 / deadzone=21,11 / fast_pskip=1 / chroma_qp_offset=-2 / threads=24 / sliced_threads=0 / nr=0 / decimate=1 / interlaced=0 / constrained_intra=0 / bframes=3 / b_pyramid=0 / b_adapt=1 / b_bias=0 / direct=3 / weightb=1 / open_gop=0 / weightp=2 / keyint=250 / keyint_min=25 / scenecut=40 / intra_refresh=0 / rc_lookahead=40 / rc=crf / mbtree=1 / crf=20.0 / qcomp=0.60 / qpmin=10 / qpmax=51 / qpstep=4 / ip_ratio=1.41 / aq=1:1.00\r\n\r\nAudio\r\nID : 2\r\nFormat : AAC\r\nFormat/Info : Advanced Audio Codec\r\nFormat profile : LC\r\nCodec ID : 40\r\nDuration : 22mn 38s\r\nBit rate mode : Variable\r\nBit rate : 152 Kbps\r\nChannel(s) : 2 channels\r\nChannel positions : Front: L R\r\nSampling rate : 44.1 KHz\r\nCompression mode : Lossy\r\nStream size : 24.6 MiB (7%)\r\n\r\n