JoyMii.com – Ivy, Fuck Me

[AbbyWinters.com] Editors Choice – October 2012 SquirtingDakota James & Hannah Hartman – Blindfold My Baby

Posted in HD Porn, Pornstar, Sex Movies, Teen | 18951 Views |


Rate this girl !!!




cover\r\n\r\n1920x1080p / MP4 / 2.07 GB\r\n

[JoyMii.com] Ivy – Fuck Me

\r\nSCREENSHOTS:\r\n\r\nscreens



DOWNLOAD

Keep2share.cc - Uploaded.net - Openload.co - Rapidu.net


http://ul.to/icauk7m6/Fvck.M3_1920x1080.mp4
http://played.to/xaw5poc4dmro


Premium here:
uploaded.net
keep2share.cc
rapidu.net.cc


Teens related to JoyMii.com – Ivy, Fuck Me


Daria – Clinic Sex ryushare uploaded keep2share

Daria – Clinic Sex

Young Sex Movies 2411 ryushare uploaded keep2share

Young Sex Movies 2411

Tube Young Sex 5676 ryushare uploaded keep2share

Tube Young Sex 5676

non HD xxx movie ryushare uploaded keep2share

non HD xxx movie

Creampie-Angels.com Licie ryushare uploaded keep2share

Creampie-Angels.com Licie

RealExGirlfriends.com Megan Rain – Brunette Teen ryushare uploaded keep2share

RealExGirlfriends.com Megan Rain – Brunette Teen

YoungCourtesans.com Shakti – Special Sex Arrangement ryushare uploaded keep2share

YoungCourtesans.com Shakti – Special Sex Arrangement

wwwten sex hd com 226451 ryushare uploaded keep2share

wwwten sex hd com 226451

Young 720p hd porn 4567 ryushare uploaded keep2share

Young 720p hd porn 4567

Young schoolgirl fucked hard ryushare uploaded keep2share

Young schoolgirl fucked hard

TrickyMasseur.com Aline ryushare uploaded keep2share

TrickyMasseur.com Aline

RealExGerlfriends.com Sammie Daniels – Heavenly Pussy ryushare uploaded keep2share

RealExGerlfriends.com Sammie Daniels – Heavenly Pussy

SexArt.com Ivana Sugar & Vanda Lust – Rain ryushare uploaded keep2share

SexArt.com Ivana Sugar & Vanda Lust – Rain

Porn teen hd downloads 225513 ryushare uploaded keep2share

Porn teen hd downloads 225513

www 18years sex videos hd ryushare uploaded keep2share

www 18years sex videos hd

Watch Teen Sex Videos HD 1595 ryushare uploaded keep2share

Watch Teen Sex Videos HD 1595

JoyMii.com Lara – Getting Laid ryushare uploaded keep2share

JoyMii.com Lara – Getting Laid

The best Teen sex 225598 ryushare uploaded keep2share

The best Teen sex 225598

Teen porn xxx 5290 ryushare uploaded keep2share

Teen porn xxx 5290

WowGirls.com Linda Sweet, Lucy Li – True Fulfillment ryushare uploaded keep2share

WowGirls.com Linda Sweet, Lucy Li – True Fulfillment

Nude Teens fucking hard 225375 ryushare uploaded keep2share

Nude Teens fucking hard 225375

Porn teen hd downloads 224748 ryushare uploaded keep2share

Porn teen hd downloads 224748

18OnlyGirls Nikita (Gina Devine) Here I Cum! ryushare uploaded keep2share

18OnlyGirls Nikita (Gina Devine) Here I Cum!

Www gri xxx com 226361 ryushare uploaded keep2share

Www gri xxx com 226361

fuck from behind 226023 ryushare uploaded keep2share

fuck from behind 226023

Dominika & Nathaly Heaven – Fistgasm ryushare uploaded keep2share

Dominika & Nathaly Heaven – Fistgasm

Alice – Newbie Paid for Taking a Cumshot ryushare uploaded keep2share

Alice – Newbie Paid for Taking a Cumshot

Tube Young Sex 3436 ryushare uploaded keep2share

Tube Young Sex 3436

Adult Hardcore XXX Sex Videos 3795 ryushare uploaded keep2share

Adult Hardcore XXX Sex Videos 3795

www xxx utbe com ryushare uploaded keep2share

www xxx utbe com

SexArt.com Dominica Phoenix, Katy Rose, Lexie Dona ryushare uploaded keep2share

SexArt.com Dominica Phoenix, Katy Rose, Lexie Dona

www hd 18years sex videos free downlode net 226256 ryushare uploaded keep2share

www hd 18years sex videos free downlode net 226256

hd 1080p xxx video pornstar 226170 ryushare uploaded keep2share

hd 1080p xxx video pornstar 226170

porn movie hd romantic download 226228 ryushare uploaded keep2share

porn movie hd romantic download 226228

Wow porn tube movies 224745 ryushare uploaded keep2share

Wow porn tube movies 224745

Report broken links / Post a comment

You must be logged in to post a comment.



[JoyMii.com] Ivy – Fuck Me \r\n\r\nGeneral\r\nComplete name : J:HD Teens Movies Young Downloads Online Clips Scenes [JoyMii.com] Ivy – Fuck Me _1920x1080.mp4\r\nFormat : MPEG-4\r\nFormat profile : Base Media\r\nCodec ID : isom\r\nFile size : 2.07 GiB\r\nDuration : 24mn 2s\r\nOverall bit rate mode : Variable\r\nOverall bit rate : 12.4 Mbps\r\nEncoded date : UTC 2014-10-02 08:10:35\r\nTagged date : UTC 2014-10-02 08:10:35\r\nWriting application : Lavf54.3.100\r\n\r\nVideo\r\nID : 1\r\nFormat : AVC\r\nFormat/Info : Advanced Video Codec\r\nFormat profile : [email protected]\r\nFormat settings, CABAC : Yes\r\nFormat settings, ReFrames : 4 frames\r\nCodec ID : avc1\r\nCodec ID/Info : Advanced Video Coding\r\nDuration : 24mn 2s\r\nBit rate : 12.3 Mbps\r\nWidth : 1 920 pixels\r\nHeight : 1 080 pixels\r\nDisplay aspect ratio : 16:9\r\nFrame rate mode : Constant\r\nFrame rate : 25.000 fps\r\nColor space : YUV\r\nChroma subsampling : 4:2:0\r\nBit depth : 8 bits\r\nScan type : Progressive\r\nBits/(Pixel*Frame) : 0.237\r\nStream size : 2.05 GiB (99%)\r\nWriting library : x264 core 122 r2184 5c85e0a\r\nEncoding settings : cabac=1 / ref=3 / deblock=1:0:0 / analyse=0x3:0x113 / me=hex / subme=7 / psy=1 / psy_rd=1.00:0.00 / mixed_ref=1 / me_range=16 / chroma_me=1 / trellis=1 / 8x8dct=1 / cqm=0 / deadzone=21,11 / fast_pskip=1 / chroma_qp_offset=-2 / threads=12 / sliced_threads=0 / nr=0 / decimate=1 / interlaced=0 / bluray_compat=0 / constrained_intra=0 / bframes=3 / b_pyramid=2 / b_adapt=1 / b_bias=0 / direct=1 / weightb=1 / open_gop=0 / weightp=2 / keyint=250 / keyint_min=25 / scenecut=40 / intra_refresh=0 / rc_lookahead=40 / rc=abr / mbtree=1 / bitrate=12288 / ratetol=1.0 / qcomp=0.60 / qpmin=0 / qpmax=69 / qpstep=4 / ip_ratio=1.40 / aq=1:1.00\r\nLanguage : English\r\nEncoded date : UTC 2014-10-02 08:10:35\r\nTagged date : UTC 2014-10-02 08:10:35\r\n\r\nAudio\r\nID : 2\r\nFormat : AAC\r\nFormat/Info : Advanced Audio Codec\r\nFormat profile : LC\r\nCodec ID : 40\r\nDuration : 24mn 2s\r\nBit rate mode : Variable\r\nBit rate : 118 Kbps\r\nMaximum bit rate : 128 Kbps\r\nChannel count : 2 channels\r\nChannel positions : Front: L R\r\nSampling rate : 44.1 KHz\r\nCompression mode : Lossy\r\nStream size : 20.3 MiB (1%)\r\nLanguage : English\r\nEncoded date : UTC 2014-10-02 08:10:35\r\nTagged date : UTC 2014-10-02 08:10:35\r\n\r\n\r\n