K Three Teasing Tongues 3

Klixen, Cindy Hope and Cipriana - Three teasing tongues 2Klixen - K Two Teasing Tongues 12 - A

Posted in HD Porn, Pornstar, Sex Movies, Teen, Threesome | 13313 Views |


Rate this girl !!!




pic\r\n

[K Klixen Productions / clips4sale.com] Cipriana, Abbie, Athina (Three Teasing Tongues 3) [2013 г., Blowjob]

\r\nK Three Teasing Tongues 3\r\npicImya actress: Cipriana, abbie, athina\r\nName movie: Three Teasing Tongues 3\r\nSubsite and site: K Klixen Productions / clips4sale.com\r\nProduction year: 2013\r\nCategory: Blowjob\r\nDuration: 00:35:11\r\nDescription: Cipriana, abbie and athina … three cute girls from the neighbourhood, who are ignoring you … they don’t want to talk to you … they even shoo you away, if you come too close to them. .. but there is only one thing running in your mind … getting a blowjob from these tasty chicks … it remains only a fantasy\r\nVideo Format: MPEG\r\nVideo codec: H.264 / AVC\r\nAudio codec: AAC\r\nVideo: MPEG4 Video (H264) 856×480 25fps 1999kbps\r\nAudio: AAC 44100Hz stereo 151kbps\r\n\r\npic



DOWNLOAD

Keep2share.cc - Uploaded.net - Openload.co - Rapidu.net



http://k2s.cc/file/775fa3a2e4f6f/hj243.mp4

http://ul.to/dlt34dh3/hj243.mp4


Premium here:
uploaded.net
keep2share.cc
rapidu.net.cc


Teens related to K Three Teasing Tongues 3


The best Teen sex 225173 ryushare uploaded keep2share

The best Teen sex 225173

Teen Porn XXX Tube 224426 ryushare uploaded keep2share

Teen Porn XXX Tube 224426

Public Pick Ups – Lili Devil ryushare uploaded keep2share

Public Pick Ups – Lili Devil

hd 720p porn vdo download ryushare uploaded keep2share

hd 720p porn vdo download

HD Teen Sex Tube 3572 ryushare uploaded keep2share

HD Teen Sex Tube 3572

K Craving Lips 3 – B ryushare uploaded keep2share

K Craving Lips 3 – B

kHz xxx sex ryushare uploaded keep2share

kHz xxx sex

Young Virgin Pussy Teen Fuck Tube 1473 ryushare uploaded keep2share

Young Virgin Pussy Teen Fuck Tube 1473

HQ Sex Movies Download 5330 ryushare uploaded keep2share

HQ Sex Movies Download 5330

www free hd virgin porn download com ryushare uploaded keep2share

www free hd virgin porn download com

pc full hd video xxx download ryushare uploaded keep2share

pc full hd video xxx download

foto xxx porn girl ryushare uploaded keep2share

foto xxx porn girl

Katy Rose & Lutro – Lubricous ryushare uploaded keep2share

Katy Rose & Lutro – Lubricous

www hdfuckvidoes com ryushare uploaded keep2share

www hdfuckvidoes com

www virgin sex hd porn videos com ryushare uploaded keep2share

www virgin sex hd porn videos com

HD Porn Video 224481 ryushare uploaded keep2share

HD Porn Video 224481

Teen 18 Porn XXX Clips Naked 3465 ryushare uploaded keep2share

Teen 18 Porn XXX Clips Naked 3465

ww poran xxx hd com 226538 ryushare uploaded keep2share

ww poran xxx hd com 226538

www pinkwordcom 226327 ryushare uploaded keep2share

www pinkwordcom 226327

First time Sexual Films 18 sex xxx 4718 ryushare uploaded keep2share

First time Sexual Films 18 sex xxx 4718

Hd young videos 4536 ryushare uploaded keep2share

Hd young videos 4536

Teen Sex Porn Videos Free Nude Teens 5135 ryushare uploaded keep2share

Teen Sex Porn Videos Free Nude Teens 5135

Anabelle Pync – Anabelle’s sensual tease – 2014 ryushare uploaded keep2share

Anabelle Pync – Anabelle’s sensual tease – 2014

Just Clara ryushare uploaded keep2share

Just Clara

waltz autumn sexart ryushare uploaded keep2share

waltz autumn sexart

Fucking a RedHair Sexy teen amateur ryushare uploaded keep2share

Fucking a RedHair Sexy teen amateur

antartika sex hd ryushare uploaded keep2share

antartika sex hd

College Teen Sex 3556 ryushare uploaded keep2share

College Teen Sex 3556

Teen porn movies 2976 ryushare uploaded keep2share

Teen porn movies 2976

www pussyHD picture ryushare uploaded keep2share

www pussyHD picture

8 Teen XXX – Teen Sex 225179 ryushare uploaded keep2share

8 Teen XXX – Teen Sex 225179

Teen Sex Movies 2658 ryushare uploaded keep2share

Teen Sex Movies 2658

proun hup xxx video mp4 ryushare uploaded keep2share

proun hup xxx video mp4

Sabrina L – Sabrina Flirting With Her Personal Trainer ryushare uploaded keep2share

Sabrina L – Sabrina Flirting With Her Personal Trainer

Brandy Naughty – First Time Auditions ryushare uploaded keep2share

Brandy Naughty – First Time Auditions

Report broken links / Post a comment

You must be logged in to post a comment.



General\r\nComplete name : D:hd teens porn download free online[K Klixen Productions / clips4sale.com] Cipriana, Abbie, Athina (Three Teasing Tongues 3) [2013 г., Blowjob].mp4\r\nFormat : MPEG-4\r\nFormat profile : Base Media\r\nCodec ID : isom\r\nFile size : 543 MiB\r\nDuration : 35mn 10s\r\nOverall bit rate mode : Variable\r\nOverall bit rate : 2 157 Kbps\r\nWriting application : Lavf54.63.104\r\n\r\nVideo\r\nID : 1\r\nFormat : AVC\r\nFormat/Info : Advanced Video Codec\r\nFormat profile : [email protected]\r\nFormat settings, CABAC : Yes\r\nFormat settings, ReFrames : 2 frames\r\nCodec ID : avc1\r\nCodec ID/Info : Advanced Video Coding\r\nDuration : 35mn 10s\r\nBit rate : 2 000 Kbps\r\nWidth : 856 pixels\r\nHeight : 480 pixels\r\nDisplay aspect ratio : 16:9\r\nFrame rate mode : Constant\r\nFrame rate : 25.000 fps\r\nColor space : YUV\r\nChroma subsampling : 4:2:0\r\nBit depth : 8 bits\r\nScan type : Progressive\r\nBits/(Pixel*Frame) : 0.195\r\nStream size : 503 MiB (93%)\r\nWriting library : x264 core 129\r\nEncoding settings : cabac=1 / ref=2 / deblock=1:0:0 / analyse=0x3:0x113 / me=hex / subme=6 / psy=1 / psy_rd=1.00:0.00 / mixed_ref=1 / me_range=16 / chroma_me=1 / trellis=0 / 8x8dct=1 / cqm=0 / deadzone=21,11 / fast_pskip=1 / chroma_qp_offset=-2 / threads=4 / lookahead_threads=1 / sliced_threads=0 / nr=0 / decimate=1 / interlaced=0 / bluray_compat=0 / constrained_intra=0 / bframes=0 / weightp=2 / keyint=250 / keyint_min=25 / scenecut=40 / intra_refresh=0 / rc_lookahead=40 / rc=2pass / mbtree=1 / bitrate=2000 / ratetol=1.0 / qcomp=0.60 / qpmin=10 / qpmax=51 / qpstep=4 / cplxblur=20.0 / qblur=0.5 / ip_ratio=1.41 / aq=1:1.00\r\n\r\nAudio\r\nID : 2\r\nFormat : AAC\r\nFormat/Info : Advanced Audio Codec\r\nFormat profile : LC\r\nCodec ID : 40\r\nDuration : 35mn 10s\r\nDuration_FirstFrame : 70ms\r\nBit rate mode : Variable\r\nBit rate : 152 Kbps\r\nMaximum bit rate : 176 Kbps\r\nChannel(s) : 2 channels\r\nChannel positions : Front: L R\r\nSampling rate : 44.1 KHz\r\nCompression mode : Lossy\r\nStream size : 38.2 MiB (7%)\r\n\r\n