K Two Teasing Tongues 8 B

K Two Teasing Tongues 8 AEdge play with Anabelle and Ashlynn

Posted in HD Porn, Pornstar, Sex Movies, Teen, Threesome | 16013 Views |


Rate this girl !!!




pic\r\n

[K Klixen Productions / clips4sale.com] Madlin, Vanda (Two Teasing Tongues 8) [2013 г., Blowjob]

\r\nK Two Teasing Tongues 8 – B\r\npicImya actress: Madlin, Vanda\r\nName movie: Two Teasing Tongues 8\r\nSubsite and site: K Klixen Productions / clips4sale.com\r\nProduction year: 2013\r\nCategory: Blowjob\r\nDuration: 00:33:18\r\nDescription: Madlin and Vanda POV blowjob\r\nVideo Format: MPEG\r\nVideo codec: H.264 / AVC\r\nAudio codec: AAC\r\nVideo: MPEG4 Video (H264) 852×480 29.97fps 2010kbps\r\nAudio: AAC 44100Hz stereo 95kbps\r\n\r\npic\r\n\r\n \r\n\r\n 



DOWNLOAD

Keep2share.cc - Uploaded.net - Openload.co - Rapidu.net



http://k2s.cc/file/4b2cb29f90f9e/Cl1ps.4.S4l3.M4dl1n%2C.V4nd4.Two.T34s1ng.Tongu3s.8.P4rt.B.mp4

http://ul.to/c87jz70b/Cl1ps.4.S4l3.M4dl1n,.V4nd4.Two.T34s1ng.Tongu3s.8.P4rt.B.mp4


Premium here:
uploaded.net
keep2share.cc
rapidu.net.cc


Teens related to K Two Teasing Tongues 8 B


College Teen Sex 224613 ryushare uploaded keep2share

College Teen Sex 224613

1080p pornstar 226032 ryushare uploaded keep2share

1080p pornstar 226032

Tiffany Fox, Alina Li – Sleepover Aftermath ryushare uploaded keep2share

Tiffany Fox, Alina Li – Sleepover Aftermath

Brunnete Pornstar Teenage Fucked ryushare uploaded keep2share

Brunnete Pornstar Teenage Fucked

Sex videos hd for pc ryushare uploaded keep2share

Sex videos hd for pc

Tube Young Sex 1406 ryushare uploaded keep2share

Tube Young Sex 1406

Wow girls hd porn teens 5537 ryushare uploaded keep2share

Wow girls hd porn teens 5537

HD Porn Video 224842 ryushare uploaded keep2share

HD Porn Video 224842

Jenny Simons – At The Right Time ryushare uploaded keep2share

Jenny Simons – At The Right Time

Any sex full hd x art porn vidivos free ryushare uploaded keep2share

Any sex full hd x art porn vidivos free

xxx video hd romantik downlod ryushare uploaded keep2share

xxx video hd romantik downlod

HD Teens Sex Tube Videos XxX 3546 ryushare uploaded keep2share

HD Teens Sex Tube Videos XxX 3546

High Definition Movies on HD Teen Porn XXX Tube 2367 ryushare uploaded keep2share

High Definition Movies on HD Teen Porn XXX Tube 2367

Young XXX Tube Videos 3564 ryushare uploaded keep2share

Young XXX Tube Videos 3564

Young Virgin Pussy Teen Fuck Tube 1905 ryushare uploaded keep2share

Young Virgin Pussy Teen Fuck Tube 1905

Morgan Brooke – Very hot teen – Tease.Me ryushare uploaded keep2share

Morgan Brooke – Very hot teen – Tease.Me

Teen porn movies 3659 ryushare uploaded keep2share

Teen porn movies 3659

HD Porn Teen Sex Videos 4070 ryushare uploaded keep2share

HD Porn Teen Sex Videos 4070

HD Porn Videos 4503 ryushare uploaded keep2share

HD Porn Videos 4503

Nude Teens fucking hard 5075 ryushare uploaded keep2share

Nude Teens fucking hard 5075

HQ hd full xxx video free download 226615 ryushare uploaded keep2share

HQ hd full xxx video free download 226615

Hardcore sex videos in the high definition quality 4529 ryushare uploaded keep2share

Hardcore sex videos in the high definition quality 4529

Watch Teen Sex Videos HD 4869 ryushare uploaded keep2share

Watch Teen Sex Videos HD 4869

Wow porn hd downloads 224319 ryushare uploaded keep2share

Wow porn hd downloads 224319

Teen porn movies 2560 ryushare uploaded keep2share

Teen porn movies 2560

Rosaline Rosa & Vanda Lust – On The Sly ryushare uploaded keep2share

Rosaline Rosa & Vanda Lust – On The Sly

CastingCouch X Jayden Full HD ryushare uploaded keep2share

CastingCouch X Jayden Full HD

Free Teen Porn Videos at Teen Sex Tube XXX 225611 ryushare uploaded keep2share

Free Teen Porn Videos at Teen Sex Tube XXX 225611

sexy video HD down ryushare uploaded keep2share

sexy video HD down

Good Teen Tube Sexy Young Naked Girls Movies 225833 ryushare uploaded keep2share

Good Teen Tube Sexy Young Naked Girls Movies 225833

Maaike – A nice handjob to finish it ryushare uploaded keep2share

Maaike – A nice handjob to finish it

Sasha Foxxx (Sasha’s edging orgasm control) ryushare uploaded keep2share

Sasha Foxxx (Sasha’s edging orgasm control)

HD Porn Videos 1486 ryushare uploaded keep2share

HD Porn Videos 1486

High Definition Movies on HD Teen Porn XXX Tube 2211 ryushare uploaded keep2share

High Definition Movies on HD Teen Porn XXX Tube 2211

Free Young Porn Videos XXX Teen Porn 225792 ryushare uploaded keep2share

Free Young Porn Videos XXX Teen Porn 225792

Report broken links / Post a comment

You must be logged in to post a comment.



General\r\nComplete name : D:hd teens porn download free online[K Klixen Productions / clips4sale.com] Madlin, Vanda (Two Teasing Tongues 8) [2013 г., Blowjob].PArt.B.mp4\r\nFormat : MPEG-4\r\nCodec ID : M4V \r\nFile size : 171 MiB\r\nDuration : 11mn 21s\r\nOverall bit rate mode : Variable\r\nOverall bit rate : 2 104 Kbps\r\nEncoded date : UTC 1970-01-01 00:00:00\r\nTagged date : UTC 1970-01-01 00:00:00\r\n\r\nVideo\r\nID : 1\r\nFormat : AVC\r\nFormat/Info : Advanced Video Codec\r\nFormat profile : [email protected]\r\nFormat settings, CABAC : No\r\nFormat settings, ReFrames : 1 frame\r\nFormat settings, GOP : M=1, N=12\r\nCodec ID : avc1\r\nCodec ID/Info : Advanced Video Coding\r\nDuration : 11mn 21s\r\nBit rate : 2 000 Kbps\r\nWidth : 852 pixels\r\nHeight : 480 pixels\r\nDisplay aspect ratio : 16:9\r\nFrame rate mode : Constant\r\nFrame rate : 29.970 fps\r\nColor space : YUV\r\nChroma subsampling : 4:2:0\r\nBit depth : 8 bits\r\nScan type : Progressive\r\nBits/(Pixel*Frame) : 0.163\r\nStream size : 163 MiB (95%)\r\nWriting library : x264 core 77\r\nEncoding settings : cabac=0 / ref=1 / deblock=0:0:0 / analyse=0x1:0 / me=dia / subme=8 / psy=1 / psy_rd=1.0:0.0 / mixed_ref=0 / me_range=16 / chroma_me=0 / trellis=0 / 8x8dct=0 / cqm=0 / deadzone=21,11 / chroma_qp_offset=-2 / threads=2 / nr=0 / decimate=1 / mbaff=0 / constrained_intra=0 / bframes=0 / keyint=12 / keyint_min=7 / scenecut=0 / rc_lookahead=29 / rc=cbr / mbtree=1 / bitrate=2000 / ratetol=1.0 / qcomp=0.60 / qpmin=10 / qpmax=51 / qpstep=4 / vbv_maxrate=10000 / vbv_bufsize=10000 / ip_ratio=1.41 / aq=1:1.00\r\nLanguage : German\r\nEncoded date : UTC 1970-01-01 00:00:00\r\nTagged date : UTC 1970-01-01 00:00:00\r\n\r\nAudio\r\nID : 2\r\nFormat : AAC\r\nFormat/Info : Advanced Audio Codec\r\nFormat profile : LC\r\nCodec ID : 40\r\nDuration : 11mn 20s\r\nBit rate mode : Variable\r\nBit rate : 96.0 Kbps\r\nChannel(s) : 2 channels\r\nChannel positions : Front: L R\r\nSampling rate : 44.1 KHz\r\nCompression mode : Lossy\r\nStream size : 7.73 MiB (5%)\r\nLanguage : German\r\nEncoded date : UTC 1970-01-01 00:00:00\r\nTagged date : UTC 1970-01-01 00:00:00\r\n\r\n