Kail – My Favorite Country

18OnlyGirls Nikita (Gina Devine) Here I Cum!Alyona, Klara & Paloma - Strap-on Adventure

Posted in HD Porn, Pornstar, Sex Movies, Teen | 25436 Views |


Rate this girl !!!




My Favorite Country – KAIL GETS HER TIGHT PUSSY DRILLED IN THE BATHROOM…\r\n\r\nKail - My Favorite Country 1\r\n\r\nRelease Date: 31.05.2014\r\nSubsite and site: LustHD.com / TeamSkeet.com\r\nGenre: All Sex, Blowjob, Teen, Hardcore\r\nStarring: Kail (AKA: Kali, Kortny, Raphael, Raphaella, Sandy)\r\nDuration: 00:23:17\r\nDescription: So fresh and so clean – super hot Kail was fresh out of the shower and was getting ready for a chill day at home. That was until her boyfriend spotted her in her Norway booty shorts and decided he would claim that ass in the name of his dick! Her pussy and surrounding territories were invaded by the cock and tongue army and finally, when all hope seemed lost, she was able to appease her meaty aggressor by accepting the white cumshot of surrender all over her mouth and face!\r\nVideo Quality: SiteRip / 720p\r\nVideo Format: MP4\r\nVideo codec: H.264 / AVC\r\nAudio codec: AAC\r\nVideo: MPEG4 Video (H264) 1280×720 23.976fps 4998 Kbps\r\nAudio: AAC 44100Hz stereo 1411kbps\r\n\r\n[LustHD.com / TeamSkeet.com] Kail (AKA: Kali, Kortny, Raphael, Raphaella, Sandy) – My Favorite Country / 31.05.2014 [2014, All Sex, Blowjob, Teen, Hardcore, 720p]\r\n\r\nKail - My Favorite Country 2Kail - My Favorite Country 3



DOWNLOAD

Keep2share.cc - Uploaded.net - Openload.co - Rapidu.net


http://ul.to/tavkw5mm/lusthd_kail4_full_hi_720hd.mp4
http://fileom.com/2p9yxr1e8nay/lusthd_kail4_full_hi_720hd.mp4.html
http://k2s.cc/file/d8024d5cb8df8/lusthd_kail4_full_hi_720hd.mp4


Premium here:
uploaded.net
keep2share.cc
rapidu.net.cc

Teens related to Kail – My Favorite Country


Nubilefilms.com Elena Rae – Russian Beauty ryushare uploaded keep2share

Nubilefilms.com Elena Rae – Russian Beauty

teenporno mp4 ryushare uploaded keep2share

teenporno mp4

Movies Young legal porn 224470 ryushare uploaded keep2share

Movies Young legal porn 224470

Young Sex Movies 1335 ryushare uploaded keep2share

Young Sex Movies 1335

I Love Young Girls 3 ryushare uploaded keep2share

I Love Young Girls 3

Free High Quality Sex Movies 3731 ryushare uploaded keep2share

Free High Quality Sex Movies 3731

www hdsexse vidio 226293 ryushare uploaded keep2share

www hdsexse vidio 226293

Alexis Brill – Waltz With Me – Autumn ryushare uploaded keep2share

Alexis Brill – Waltz With Me – Autumn

Young XXX Tube Videos 4887 ryushare uploaded keep2share

Young XXX Tube Videos 4887

Teen Sex Movies 2192 ryushare uploaded keep2share

Teen Sex Movies 2192

Teen Sex Porn Videos Free Nude Teens 3806 ryushare uploaded keep2share

Teen Sex Porn Videos Free Nude Teens 3806

Tube xxx 224727 ryushare uploaded keep2share

Tube xxx 224727

Teenies Videos – Teen Porn, Teen Sex, XXX Free Videos 1828 ryushare uploaded keep2share

Teenies Videos – Teen Porn, Teen Sex, XXX Free Videos 1828

Small girls and boys porn 3525 ryushare uploaded keep2share

Small girls and boys porn 3525

www full hd xxx sexy movie 226625 ryushare uploaded keep2share

www full hd xxx sexy movie 226625

Porn with gorgeous redhead ryushare uploaded keep2share

Porn with gorgeous redhead

Wow porn hd downloads 225829 ryushare uploaded keep2share

Wow porn hd downloads 225829

Paula Shy – AfterParty – Sex Art ryushare uploaded keep2share

Paula Shy – AfterParty – Sex Art

Teen porn movies 223816 ryushare uploaded keep2share

Teen porn movies 223816

Free Porn Videos Xxx Movies Pussy Porn 225269 ryushare uploaded keep2share

Free Porn Videos Xxx Movies Pussy Porn 225269

Uploaded net porn 3760 ryushare uploaded keep2share

Uploaded net porn 3760

Alexis Brill A Dose Of Pantyhose ryushare uploaded keep2share

Alexis Brill A Dose Of Pantyhose

hd sex videos 1080p download for pc ryushare uploaded keep2share

hd sex videos 1080p download for pc

Jessica – Model Couple on Vacation ryushare uploaded keep2share

Jessica – Model Couple on Vacation

HD Porn Video 224842 ryushare uploaded keep2share

HD Porn Video 224842

Hardcore Sex Hub 225296 ryushare uploaded keep2share

Hardcore Sex Hub 225296

Tracy Smile ryushare uploaded keep2share

Tracy Smile

Free Teen Porn Videos at Teen Sex Tube XXX 1416 ryushare uploaded keep2share

Free Teen Porn Videos at Teen Sex Tube XXX 1416

8 Teen XXX – Teen Sex 3987 ryushare uploaded keep2share

8 Teen XXX – Teen Sex 3987

full hd 1020 ponr 226530 ryushare uploaded keep2share

full hd 1020 ponr 226530

Teen Tits Tube, Young Girls Porn Videos 2547 ryushare uploaded keep2share

Teen Tits Tube, Young Girls Porn Videos 2547

Hd quality – Teen sex video 2401 ryushare uploaded keep2share

Hd quality – Teen sex video 2401

1280HD Xxx com ryushare uploaded keep2share

1280HD Xxx com

WowGirls.com Nomi, Virginie – Madly In Love ryushare uploaded keep2share

WowGirls.com Nomi, Virginie – Madly In Love

Hot sex girls movies download 4277 ryushare uploaded keep2share

Hot sex girls movies download 4277

Report broken links / Post a comment

You must be logged in to post a comment.



General\r\nComplete name : D:Torrentslusthd_kail4_full_hi_720hd.mp4\r\nFormat : MPEG-4\r\nFormat profile : Base Media / Version 2\r\nCodec ID : mp42\r\nFile size : 854 MiB\r\nDuration : 23mn 16s\r\nOverall bit rate mode : Variable\r\nOverall bit rate : 5 130 Kbps\r\nEncoded date : UTC 2014-05-19 21:56:59\r\nTagged date : UTC 2014-05-19 21:56:59\r\nWriting library : Apple QuickTime\r\n\r\nVideo\r\nID : 1\r\nFormat : AVC\r\nFormat/Info : Advanced Video Codec\r\nFormat profile : [email protected]\r\nFormat settings, CABAC : No\r\nFormat settings, ReFrames : 2 frames\r\nCodec ID : avc1\r\nCodec ID/Info : Advanced Video Coding\r\nDuration : 23mn 16s\r\nSource duration : 23mn 16s\r\nBit rate : 4 998 Kbps\r\nWidth : 1 280 pixels\r\nHeight : 720 pixels\r\nDisplay aspect ratio : 16:9\r\nFrame rate mode : Constant\r\nFrame rate : 23.976 fps\r\nStandard : NTSC\r\nColor space : YUV\r\nChroma subsampling : 4:2:0\r\nBit depth : 8 bits\r\nScan type : Progressive\r\nBits/(Pixel*Frame) : 0.226\r\nStream size : 832 MiB (97%)\r\nSource stream size : 832 MiB (97%)\r\nLanguage : English\r\nEncoded date : UTC 2014-05-19 21:56:59\r\nTagged date : UTC 2014-05-19 21:56:59\r\nmdhd_Duration : 1396687\r\n\r\nAudio\r\nID : 2\r\nFormat : AAC\r\nFormat/Info : Advanced Audio Codec\r\nFormat profile : LC\r\nCodec ID : 40\r\nDuration : 23mn 16s\r\nBit rate mode : Variable\r\nBit rate : 128 Kbps\r\nMaximum bit rate : 135 Kbps\r\nChannel(s) : 2 channels\r\nChannel positions : Front: L R\r\nSampling rate : 44.1 KHz\r\nCompression mode : Lossy\r\nStream size : 21.3 MiB (2%)\r\nLanguage : English\r\nEncoded date : UTC 2014-05-19 21:56:59\r\nTagged date : UTC 2014-05-19 21:56:59\r\n\r\nOther #1\r\nID : 3\r\nType : Object description\r\nFormat : System Core\r\nCodec ID : 2\r\nDuration : 23mn 16s\r\nLanguage : English\r\nEncoded date : UTC 2014-05-19 21:56:59\r\nTagged date : UTC 2014-05-19 21:56:59\r\nmdhd_Duration : 1000\r\n\r\nOther #2\r\nID : 4\r\nType : Scene description\r\nFormat : System Core\r\nCodec ID : 2\r\nDuration : 23mn 16s\r\nLanguage : English\r\nEncoded date : UTC 2014-05-19 21:56:59\r\nTagged date : UTC 2014-05-19 21:56:59\r\nmdhd_Duration : 1000\r\n\r\n