Katie Jordin – Morning Affair

Kail Takes on Two Horny Studs for some funIrina hot teen

Posted in HD Porn, Pornstar, Sex Movies | 9251 Views |


Rate this girl !!!




Katie Jordin – Morning Affair Babes.com\r\n\r\nKatie Jordin – Morning Affair\r\n\r\nKatie Jordin – Morning Affair\r\n\r\nKatie Jordin – Morning Affair\r\n\r\nFile: Katie Jordin – Morning Affair.mp4\r\nSize: 877520856 bytes (836.87 MiB), duration: 00:18:06, avg.bitrate: 6464 kb/s\r\nAudio: aac, 48000 Hz, 2 channels, s16, 192 kb/s (und)\r\nVideo: h264, yuv420p, 1920×1080, 6002 kb/s, 29.97 fps(r) (und)



DOWNLOAD

Keep2share.cc - Uploaded.net - Openload.co - Rapidu.net


http://ryushare.com/29ed7e240e93/KJ.M0rn.Aff.rar
http://keep2share.cc/file/527c5dcede4cd
http://turbobit.net/7hzoung4zqgr.html
http://ul.to/sw2lryd6


Premium here:
uploaded.net
keep2share.cc
rapidu.net.cc

Teens related to Katie Jordin – Morning Affair


pc full hd video xxx download ryushare uploaded keep2share

pc full hd video xxx download

porn pinkworld hd ryushare uploaded keep2share

porn pinkworld hd

xxx teen clips 226044 ryushare uploaded keep2share

xxx teen clips 226044

Castingcouch-X.com Kaylee Haze ryushare uploaded keep2share

Castingcouch-X.com Kaylee Haze

Hot Teen Sex HD videos 224298 ryushare uploaded keep2share

Hot Teen Sex HD videos 224298

WoodmanCastingX Viola Bailey Hard mega co nz/|depositfiles com/files|uploaded to|ul to/ 226656 ryushare uploaded keep2share

WoodmanCastingX Viola Bailey Hard mega co nz/|depositfiles com/files|uploaded to|ul to/ 226656

wwwxxxsexvedios 226609 ryushare uploaded keep2share

wwwxxxsexvedios 226609

Teen Sex Porn Videos Free Nude Teens 3671 ryushare uploaded keep2share

Teen Sex Porn Videos Free Nude Teens 3671

Hardcore Sex Hub 223823 ryushare uploaded keep2share

Hardcore Sex Hub 223823

Hd quality – Teen sex video 3683 ryushare uploaded keep2share

Hd quality – Teen sex video 3683

Franziska Facella – Sparkle For Me ryushare uploaded keep2share

Franziska Facella – Sparkle For Me

Wow porn hd downloads 224896 ryushare uploaded keep2share

Wow porn hd downloads 224896

www littile pussy hdmp4 com 226115 ryushare uploaded keep2share

www littile pussy hdmp4 com 226115

Young teens tube hot girls free porn video 2600 ryushare uploaded keep2share

Young teens tube hot girls free porn video 2600

Watch Teen Sex Videos HD 224129 ryushare uploaded keep2share

Watch Teen Sex Videos HD 224129

GirlsDoPorn – 19 Years Old Girl – Legal Teens ryushare uploaded keep2share

GirlsDoPorn – 19 Years Old Girl – Legal Teens

[Nubiles.net] Gina Valentina (Petite Stunner / 29.11.2016) [Solo, Mastrubation, 1080p] ryushare uploaded keep2share

[Nubiles.net] Gina Valentina (Petite Stunner / 29.11.2016) [Solo, Mastrubation, 1080p]

wow girl outdor besd hd porn vedio dawunlod 2015 ryushare uploaded keep2share

wow girl outdor besd hd porn vedio dawunlod 2015

Stella Cox – No Panties ryushare uploaded keep2share

Stella Cox – No Panties

Nude Teens fucking hard 2774 ryushare uploaded keep2share

Nude Teens fucking hard 2774

porn xxx sex movies mkv free download 226603 ryushare uploaded keep2share

porn xxx sex movies mkv free download 226603

HD Porn Teen Sex Videos 4070 ryushare uploaded keep2share

HD Porn Teen Sex Videos 4070

X-Angels Licie ryushare uploaded keep2share

X-Angels Licie

Hot Teen Sex HD videos 1292 ryushare uploaded keep2share

Hot Teen Sex HD videos 1292

Teen Sex Movies 1521 ryushare uploaded keep2share

Teen Sex Movies 1521

Grace Solo 2 ryushare uploaded keep2share

Grace Solo 2

WebYoung.com Sammie Daniels, Samantha Rone ryushare uploaded keep2share

WebYoung.com Sammie Daniels, Samantha Rone

www xxx hd movi in 226018 ryushare uploaded keep2share

www xxx hd movi in 226018

Hot Teen Sex 2379 ryushare uploaded keep2share

Hot Teen Sex 2379

bbb wwa com xxx hd 226367 ryushare uploaded keep2share

bbb wwa com xxx hd 226367

Nice porn teen video mp4 quality ryushare uploaded keep2share

Nice porn teen video mp4 quality

www hd all xxxmovies com ryushare uploaded keep2share

www hd all xxxmovies com

Kira Queen ryushare uploaded keep2share

Kira Queen

video porn massage porn ryushare uploaded keep2share

video porn massage porn

Taissia – Take it slow ryushare uploaded keep2share

Taissia – Take it slow

Report broken links / Post a comment

You must be logged in to post a comment.



General\r\nComplete name : H:HD Porn/Direct Download/New releases/Katie Jordin - Morning Affair.mp4\r\nFormat : MPEG-4\r\nFormat profile : Base Media\r\nCodec ID : isom\r\nFile size : 837 MiB\r\nDuration : 18mn 6s\r\nOverall bit rate : 6 460 Kbps\r\nWriting application : Lavf54.1.100\r\n\r\nVideo\r\nID : 1\r\nFormat : AVC\r\nFormat/Info : Advanced Video Codec\r\nFormat profile : [email protected]\r\nFormat settings, CABAC : Yes\r\nFormat settings, ReFrames : 5 frames\r\nCodec ID : avc1\r\nCodec ID/Info : Advanced Video Coding\r\nDuration : 18mn 6s\r\nBit rate : 6 000 Kbps\r\nWidth : 1 920 pixels\r\nHeight : 1 080 pixels\r\nDisplay aspect ratio : 16:9\r\nFrame rate mode : Constant\r\nFrame rate : 29.970 fps\r\nColor space : YUV\r\nChroma subsampling : 4:2:0\r\nBit depth : 8 bits\r\nScan type : Progressive\r\nBits/(Pixel*Frame) : 0.097\r\nStream size : 778 MiB (93%)\r\nWriting library : x264 core 120 r2146 bcd41db\r\nEncoding settings : cabac=1 / ref=5 / deblock=1:0:0 / analyse=0x3:0x113 / me=umh / subme=8 / psy=1 / psy_rd=1.00:0.00 / mixed_ref=1 / me_range=16 / chroma_me=1 / trellis=1 / 8x8dct=1 / cqm=0 / deadzone=21,11 / fast_pskip=1 / chroma_qp_offset=-2 / threads=6 / sliced_threads=0 / nr=0 / decimate=1 / interlaced=0 / bluray_compat=0 / constrained_intra=0 / bframes=3 / b_pyramid=2 / b_adapt=2 / b_bias=0 / direct=3 / weightb=1 / open_gop=0 / weightp=2 / keyint=60 / keyint_min=6 / scenecut=40 / intra_refresh=0 / rc_lookahead=50 / rc=abr / mbtree=1 / bitrate=6000 / ratetol=1.0 / qcomp=0.60 / qpmin=0 / qpmax=69 / qpstep=4 / ip_ratio=1.40 / aq=1:1.00\r\nTagged date : UTC 2012-06-05 23:02:11\r\n\r\nAudio\r\nID : 2\r\nFormat : AAC\r\nFormat/Info : Advanced Audio Codec\r\nFormat profile : LC\r\nCodec ID : 40\r\nDuration : 18mn 6s\r\nBit rate mode : Constant\r\nBit rate : 192 Kbps\r\nChannel(s) : 2 channels\r\nChannel positions : Front: L R\r\nSampling rate : 48.0 KHz\r\nCompression mode : Lossy\r\nStream size : 24.9 MiB (3%)\r\nTagged date : UTC 2012-06-05 23:02:11\r\n\r\n