Lіоnа & Сhаrlіzе Веllа – Forest Fun

GirlsDoPorn E230 18 Years OldWhitney Conroy & Alexis Crystal - Sheets In The Wind

Posted in HD Porn, Lesbian, Sex Movies, Teen | 12505 Views |


Rate this girl !!!




Lіоnа & Сhаrlіzе Веllа – Forest Fun\r\n\r\nLіоnа & Сhаrlіzе Веllа – Forest Fun\r\n\r\nLіоnа & Сhаrlіzе Веllа – Forest Fun\r\n\r\nFile: Lіоnа & Сhаrlіzе Веllа – Forest Fun.mp4\r\nSize: 929278364 bytes (886.23 MiB), duration: 00:18:04, avg.bitrate: 6858 kb/s\r\nAudio: aac, 44100 Hz, 2 channels, s16, 136 kb/s (eng)\r\nVideo: h264, yuv420p, 1920×1080, 6709 kb/s, 29.97 fps(r) (eng)\r\nstep: 83 s; # tiles: 3×4, tile size: 300×168; total size: 900×672\r\n2.51 s, 4.78 shots/s; output: C:/Users/daniel/AppData/Local/Temp/3/Lіоnа & Сhаrlіzе Веllа – Forest Fun.tbme\r\n\r\n\r\n



DOWNLOAD

Keep2share.cc - Uploaded.net - Openload.co - Rapidu.net


http://ryushare.com/264a2b90a828/L10n4.Ch.F0r3st.Fvn.rar
http://keep2share.cc/file/527ba4d5fa941
http://turbobit.net/ptdh2cujxz0c.html
http://ul.to/i2tangq4


Premium here:
uploaded.net
keep2share.cc
rapidu.net.cc

Teens related to Lіоnа & Сhаrlіzе Веllа – Forest Fun


Hot Teen Sex HD videos 2425 ryushare uploaded keep2share

Hot Teen Sex HD videos 2425

Hardcore Sex Hub 225296 ryushare uploaded keep2share

Hardcore Sex Hub 225296

Silvie Deluxe – Just A Minute ryushare uploaded keep2share

Silvie Deluxe – Just A Minute

Teen 18 Porn XXX Clips Naked 3465 ryushare uploaded keep2share

Teen 18 Porn XXX Clips Naked 3465

18OnlyGirls – Natasha – 25 Clips Video Pack ryushare uploaded keep2share

18OnlyGirls – Natasha – 25 Clips Video Pack

FuckStudies.com El Storm ryushare uploaded keep2share

FuckStudies.com El Storm

Wow Porn Movies download) 224417 ryushare uploaded keep2share

Wow Porn Movies download) 224417

Www sex Full PcVideo ryushare uploaded keep2share

Www sex Full PcVideo

8 Teen XXX – Teen Sex 4603 ryushare uploaded keep2share

8 Teen XXX – Teen Sex 4603

Young xxx 224310 ryushare uploaded keep2share

Young xxx 224310

Www porn movie mkv download com 226307 ryushare uploaded keep2share

Www porn movie mkv download com 226307

world hd sex clips 226188 ryushare uploaded keep2share

world hd sex clips 226188

Wow Girls Porn Clips download 225841 ryushare uploaded keep2share

Wow Girls Porn Clips download 225841

Girls sex art hd teens videos 225147 ryushare uploaded keep2share

Girls sex art hd teens videos 225147

Small girls and boys porn 2683 ryushare uploaded keep2share

Small girls and boys porn 2683

Hd 89xxx vedios com 226476 ryushare uploaded keep2share

Hd 89xxx vedios com 226476

Wow Porn Movies download) 224734 ryushare uploaded keep2share

Wow Porn Movies download) 224734

porn pinkworld hd ryushare uploaded keep2share

porn pinkworld hd

HD Porn Teen Sex Videos 225821 ryushare uploaded keep2share

HD Porn Teen Sex Videos 225821

18 years girl xxx sex videos) 4610 ryushare uploaded keep2share

18 years girl xxx sex videos) 4610

Teen Porn XXX Tube 224445 ryushare uploaded keep2share

Teen Porn XXX Tube 224445

Free Young Porn Videos XXX Teen Porn 2569 ryushare uploaded keep2share

Free Young Porn Videos XXX Teen Porn 2569

HD Porn Teen Sex Videos 4268 ryushare uploaded keep2share

HD Porn Teen Sex Videos 4268

21Natural hd teen free ryushare uploaded keep2share

21Natural hd teen free

Teenage Fuck Clips 3782 ryushare uploaded keep2share

Teenage Fuck Clips 3782

Wow Porn Movies download) 224280 ryushare uploaded keep2share

Wow Porn Movies download) 224280

K Craving Lips 3 – A ryushare uploaded keep2share

K Craving Lips 3 – A

[POVD.com] Kendall Kayden – Shower Show ryushare uploaded keep2share

[POVD.com] Kendall Kayden – Shower Show

Watch Teen Sex Videos HD 4949 ryushare uploaded keep2share

Watch Teen Sex Videos HD 4949

hardcore sex hd download 226587 ryushare uploaded keep2share

hardcore sex hd download 226587

Teen Porn XXX Tube 224586 ryushare uploaded keep2share

Teen Porn XXX Tube 224586

teen 12 porn images 226585 ryushare uploaded keep2share

teen 12 porn images 226585

HD porn uploaded 3036 ryushare uploaded keep2share

HD porn uploaded 3036

www HD fuck vido 226084 ryushare uploaded keep2share

www HD fuck vido 226084

www hdsexse vidio 226293 ryushare uploaded keep2share

www hdsexse vidio 226293

Report broken links / Post a comment

You must be logged in to post a comment.



General\r\nComplete name : H:HD TEENS PORN/DOWNLOAD/RYUSHARE/UPLOADED/KEEP2SHARE/TURBOBIT/\r\nLіоnа & Сhаrlіzе Веllа - Forest Fun.mp4\r\nFormat : MPEG-4\r\nFormat profile : Base Media\r\nCodec ID : isom\r\nFile size : 886 MiB\r\nDuration : 18mn 4s\r\nOverall bit rate mode : Variable\r\nOverall bit rate : 6 853 Kbps\r\nWriting application : Lavf52.93.0\r\n\r\nVideo\r\nID : 1\r\nFormat : AVC\r\nFormat/Info : Advanced Video Codec\r\nFormat profile : [email protected]\r\nFormat settings, CABAC : Yes\r\nFormat settings, ReFrames : 4 frames\r\nCodec ID : avc1\r\nCodec ID/Info : Advanced Video Coding\r\nDuration : 18mn 4s\r\nBit rate : 6 800 Kbps\r\nWidth : 1 920 pixels\r\nHeight : 1 080 pixels\r\nDisplay aspect ratio : 16:9\r\nFrame rate mode : Constant\r\nFrame rate : 29.970 fps\r\nColor space : YUV\r\nChroma subsampling : 4:2:0\r\nBit depth : 8 bits\r\nScan type : Progressive\r\nBits/(Pixel*Frame) : 0.109\r\nStream size : 868 MiB (98%)\r\nWriting library : x264 core 107\r\nEncoding settings : cabac=1 / ref=3 / deblock=1:0:0 / analyse=0x3:0x113 / me=umh / subme=6 / psy=1 / psy_rd=1.00:0.00 / mixed_ref=1 / me_range=16 / chroma_me=1 / trellis=0 / 8x8dct=1 / cqm=0 / deadzone=21,11 / fast_pskip=1 / chroma_qp_offset=-2 / threads=1 / sliced_threads=0 / nr=0 / decimate=1 / interlaced=0 / constrained_intra=0 / bframes=2 / b_pyramid=2 / b_adapt=2 / b_bias=0 / direct=2 / weightb=1 / open_gop=0 / weightp=0 / keyint=30 / keyint_min=16 / scenecut=0 / intra_refresh=0 / rc_lookahead=30 / rc=abr / mbtree=1 / bitrate=6800 / ratetol=1.0 / qcomp=0.60 / qpmin=1 / qpmax=31 / qpstep=4 / ip_ratio=1.41 / aq=1:1.00\r\nLanguage : English\r\n\r\nAudio\r\nID : 2\r\nFormat : AAC\r\nFormat/Info : Advanced Audio Codec\r\nFormat profile : LC\r\nCodec ID : 40\r\nDuration : 18mn 4s\r\nBit rate mode : Variable\r\nBit rate : 137 Kbps\r\nChannel(s) : 2 channels\r\nChannel positions : Front: L R\r\nSampling rate : 44.1 KHz\r\nCompression mode : Lossy\r\nDelay relative to video : 67ms\r\nStream size : 17.7 MiB (2%)\r\nLanguage : English\r\n\r\n