Lilly – Hot pussy Fuck In An Armchair

Hot teenHDMassagePorn - Gianna - Sporty Blonde In Hot HD Porn

Posted in Amateur, HD Porn, Sex Movies, Teen | 14444 Views |


Rate this girl !!!




HerSexDebut – Lilly – Hot pussy Fuck In An Armchair [HD 720p] \r\n\r\n\r\n\r\nOriginal Name: Hot pussy Fuck In An Armchair\r\nStudio: HerSexDebut\r\nYear: 2013\r\nStarring: Lilly\r\nGenre: Teen\r\n\r\nFormat: MPEG-4\r\nDuration: 00:14:40\r\nVideo: 1280×720, 4862 Kbps\r\nAudio: 48.0 KHz, 128 Kbps\r\nFile size: 525 MB\r\n\r\nLilly - Hot pussy Fuck In An Armchair



DOWNLOAD

Keep2share.cc - Uploaded.net - Openload.co - Rapidu.net


http://ryushare.com/1f03866955db/l1lly_720p.rar
http://ul.to/bvrdnihf


Premium here:
uploaded.net
keep2share.cc
rapidu.net.cc

Teens related to Lilly – Hot pussy Fuck In An Armchair


Xxxxx hot ful hd bf movies ryushare uploaded keep2share

Xxxxx hot ful hd bf movies

HD Porn Teen Sex Videos 224669 ryushare uploaded keep2share

HD Porn Teen Sex Videos 224669

High Definition Movies on HD 5578 ryushare uploaded keep2share

High Definition Movies on HD 5578

[MyFirstSexTeacher.com / NaughtyAmerica.com] Olivia Austin (01.12.2016) [Big Tits,Blonde,Blow Job,Bubble Butt,Caucasian,Cum on Tits,Deepthroating,High Heels,Outie Pussy,Shaved,Stockings,Tattoos,Titty Fucking, 1080p] ryushare uploaded keep2share

[MyFirstSexTeacher.com / NaughtyAmerica.com] Olivia Austin (01.12.2016) [Big Tits,Blonde,Blow Job,Bubble Butt,Caucasian,Cum on Tits,Deepthroating,High Heels,Outie Pussy,Shaved,Stockings,Tattoos,Titty Fucking, 1080p]

[JulesJordan.com] Karmen Karma (Karmen Karma’s Wet Ass Devours A Cock / 03.02.2016) [2016 г., Anal, Big Butts, Big Tits, Blowjobs, Brunettes, Facial, Tattoo, 720p] ryushare uploaded keep2share

[JulesJordan.com] Karmen Karma (Karmen Karma’s Wet Ass Devours A Cock / 03.02.2016) [2016 г., Anal, Big Butts, Big Tits, Blowjobs, Brunettes, Facial, Tattoo, 720p]

Long Julie Vee movies 226110 ryushare uploaded keep2share

Long Julie Vee movies 226110

fucking sex hd download 226750 ryushare uploaded keep2share

fucking sex hd download 226750

Morgan Brooke – Very hot teen – Tease.Me ryushare uploaded keep2share

Morgan Brooke – Very hot teen – Tease.Me

Model porno sex 4859 ryushare uploaded keep2share

Model porno sex 4859

Young Sex Movies 224073 ryushare uploaded keep2share

Young Sex Movies 224073

anjelica join the fun keep2share ryushare uploaded keep2share

anjelica join the fun keep2share

Teens in Porno young porn videos and free teen sex 225503 ryushare uploaded keep2share

Teens in Porno young porn videos and free teen sex 225503

Teen Tits Tube, Young Girls Porn Videos 2547 ryushare uploaded keep2share

Teen Tits Tube, Young Girls Porn Videos 2547

Young XXX Tube Videos 223682 ryushare uploaded keep2share

Young XXX Tube Videos 223682

George on Morgan ryushare uploaded keep2share

George on Morgan

Porno movies young teens lesbian 225217 ryushare uploaded keep2share

Porno movies young teens lesbian 225217

Movies Young legal porn 5242 ryushare uploaded keep2share

Movies Young legal porn 5242

Young Sex Movies 225506 ryushare uploaded keep2share

Young Sex Movies 225506

www 000-sexmovies 226286 ryushare uploaded keep2share

www 000-sexmovies 226286

Good Teen Tube Sexy Young Naked Girls Movies 225053 ryushare uploaded keep2share

Good Teen Tube Sexy Young Naked Girls Movies 225053

Alexis Rodriguez – So Much Ass ryushare uploaded keep2share

Alexis Rodriguez – So Much Ass

Real Bushy Beavers 18 – Timea Bella ryushare uploaded keep2share

Real Bushy Beavers 18 – Timea Bella

Teen porn movies 225211 ryushare uploaded keep2share

Teen porn movies 225211

www hdsexse vidio 226293 ryushare uploaded keep2share

www hdsexse vidio 226293

Pretty skinny girl in casting video ryushare uploaded keep2share

Pretty skinny girl in casting video

X-Angels Licie ryushare uploaded keep2share

X-Angels Licie

Bella Baby 2013 – Facial Double Blowjob Cumshot ryushare uploaded keep2share

Bella Baby 2013 – Facial Double Blowjob Cumshot

Teen porn xxx 225534 ryushare uploaded keep2share

Teen porn xxx 225534

HD sex movies downloads 3688 ryushare uploaded keep2share

HD sex movies downloads 3688

Teen xxx sex hd 223777 ryushare uploaded keep2share

Teen xxx sex hd 223777

Tina Blade, Marica Hase – Spurts of love ryushare uploaded keep2share

Tina Blade, Marica Hase – Spurts of love

HD Teens Sex Tube Videos XxX 224767 ryushare uploaded keep2share

HD Teens Sex Tube Videos XxX 224767

Adele Sunshine – George on Adele ryushare uploaded keep2share

Adele Sunshine – George on Adele

HQ Sex Movies Download 224642 ryushare uploaded keep2share

HQ Sex Movies Download 224642

Teens in Porno young porn videos and free teen sex 5650 ryushare uploaded keep2share

Teens in Porno young porn videos and free teen sex 5650

Report broken links / Post a comment

You must be logged in to post a comment.



General\r\nComplete name : D:hsd_lilly_720phsd_lilly_720p.mp4\r\nFormat : MPEG-4\r\nFormat profile : Base Media\r\nCodec ID : isom\r\nFile size : 525 MiB\r\nDuration : 14mn 40s\r\nOverall bit rate : 4 999 Kbps\r\nTagged date : UTC 2012-11-14 19:18:16\r\nWriting application : Lavf53.24.0\r\n\r\nVideo\r\nID : 1\r\nFormat : AVC\r\nFormat/Info : Advanced Video Codec\r\nFormat profile : [email protected]\r\nFormat settings, CABAC : Yes\r\nFormat settings, ReFrames : 4 frames\r\nCodec ID : avc1\r\nCodec ID/Info : Advanced Video Coding\r\nDuration : 14mn 40s\r\nBit rate : 4 862 Kbps\r\nWidth : 1 280 pixels\r\nHeight : 720 pixels\r\nDisplay aspect ratio : 16:9\r\nFrame rate mode : Constant\r\nFrame rate : 50.000 fps\r\nColor space : YUV\r\nChroma subsampling : 4:2:0\r\nBit depth : 8 bits\r\nScan type : Progressive\r\nBits/(Pixel*Frame) : 0.106\r\nStream size : 510 MiB (97%)\r\nWriting library : x264 core 119 r2106 07efeb4\r\nEncoding settings : cabac=1 / ref=3 / deblock=1:0:0 / analyse=0x3:0x113 / me=hex / subme=7 / psy=1 / psy_rd=1.00:0.00 / mixed_ref=1 / me_range=16 / chroma_me=1 / trellis=1 / 8x8dct=1 / cqm=0 / deadzone=21,11 / fast_pskip=1 / chroma_qp_offset=2 / threads=6 / sliced_threads=0 / nr=0 / decimate=1 / interlaced=0 / bluray_compat=0 / constrained_intra=0 / bframes=3 / b_pyramid=2 / b_adapt=1 / b_bias=0 / direct=1 / weightb=1 / open_gop=0 / weightp=2 / keyint=150 / keyint_min=15 / scenecut=40 / intra_refresh=0 / rc_lookahead=40 / rc=crf / mbtree=1 / crf=18.0 / qcomp=0.60 / qpmin=0 / qpmax=69 / qpstep=4 / vbv_maxrate=6000 / vbv_bufsize=12000 / crf_max=0.0 / nal_hrd=none / ip_ratio=1.40 / aq=1:1.00\r\n\r\nAudio\r\nID : 2\r\nFormat : AAC\r\nFormat/Info : Advanced Audio Codec\r\nFormat profile : LC\r\nCodec ID : 40\r\nDuration : 14mn 40s\r\nBit rate mode : Constant\r\nBit rate : 128 Kbps\r\nChannel(s) : 2 channels\r\nChannel positions : Front: L R\r\nSampling rate : 48.0 KHz\r\nCompression mode : Lossy\r\nStream size : 13.4 MiB (3%)\r\n\r\n