Linda S – I’Am Your Woman

VIOLA BAILEY'S and BEATA UNDINE - HARD - BED + 1Linda S - YES Girl

Posted in HD Porn, Pornstar, Sex Movies, Teen | 7766 Views |


Rate this girl !!!




[18OnlyGirls.com] Linda S (aka Mega, Megifa) (I’Am Your Woman / 23-10-2013) [2013, Legal Teen, Hardcore, All Sex, HDRip, 1080p]\r\n\r\nLinda S - I'Am Your Woman.mp4_snapshot_00.38_[2013.10.23_09.09.35]\r\n\r\nProduction year: 2013\r\nName of the actress: Linda S (aka Mega, Megifa)\r\nTitle: I’Am Your Woman\r\nSubsite and site: 18OnlyGirls.com\r\nGenre: Legal Teen, Hardcore, All Sex\r\nDuration: 00:19:33\r\nVideo Quality: HDRip\r\nHD Video Type: 1080p\r\nVideo Format: MP4\r\nVideo codec: H.264 / AVC\r\nAudio codec: AAC\r\nVideo: MPEG4 Video (H264) 1920×1080 29.97fps 4513kbps [Video]\r\nAudio: AAC 44100Hz stereo 106kbps [Audio]\r\n\r\nLinda S - I'Am Your Woman.mp4_thumbs_[2013.10.23_09.09.40]



DOWNLOAD

Keep2share.cc - Uploaded.net - Openload.co - Rapidu.net


http://fileom.com/skryi81yzl72/Li.nda_S._I.A.m.Your.W.om.an.mp4.html
http://k2s.cc/file/9992c9e534a91/Li.nda_S._I.A.m.Your.W.om.an.mp4
http://ul.to/ezlcn89z/Li.nda%20S.%20I.A.m.Your.W.om.an.mp4


Premium here:
uploaded.net
keep2share.cc
rapidu.net.cc


Teens related to Linda S – I’Am Your Woman


Teen Sex Porn Videos Free Nude Teens 4441 ryushare uploaded keep2share

Teen Sex Porn Videos Free Nude Teens 4441

21Naturals.com Alysa Gap ryushare uploaded keep2share

21Naturals.com Alysa Gap

low mb hd sex video downlod 226309 ryushare uploaded keep2share

low mb hd sex video downlod 226309

English hot giral sex 226062 ryushare uploaded keep2share

English hot giral sex 226062

Girls sex art hd teens videos 225709 ryushare uploaded keep2share

Girls sex art hd teens videos 225709

sexy video HD down ryushare uploaded keep2share

sexy video HD down

Vintage Collection – The Photographer ryushare uploaded keep2share

Vintage Collection – The Photographer

Young teens tube hot girls free porn video 2828 ryushare uploaded keep2share

Young teens tube hot girls free porn video 2828

Hd young videos 4536 ryushare uploaded keep2share

Hd young videos 4536

HD sex movies downloads 2857 ryushare uploaded keep2share

HD sex movies downloads 2857

Teenies Videos – Teen Porn, Teen Sex, XXX Free Videos 224604 ryushare uploaded keep2share

Teenies Videos – Teen Porn, Teen Sex, XXX Free Videos 224604

HD porn uploaded 3712 ryushare uploaded keep2share

HD porn uploaded 3712

Alysa Gap & Beata Undine – Bounty Of Meat ryushare uploaded keep2share

Alysa Gap & Beata Undine – Bounty Of Meat

xxx www888 ryushare uploaded keep2share

xxx www888

Free Porn Videos Xxx Movies Pussy Porn 225348 ryushare uploaded keep2share

Free Porn Videos Xxx Movies Pussy Porn 225348

HD Teen Sex Tube 225339 ryushare uploaded keep2share

HD Teen Sex Tube 225339

Teen 18 Porn XXX Clips Naked 2084 ryushare uploaded keep2share

Teen 18 Porn XXX Clips Naked 2084

Hot Teen Sex HD videos 223993 ryushare uploaded keep2share

Hot Teen Sex HD videos 223993

girls of porns in sxy mode ryushare uploaded keep2share

girls of porns in sxy mode

Small girls and boys porn 3525 ryushare uploaded keep2share

Small girls and boys porn 3525

Teen porn xxx 225534 ryushare uploaded keep2share

Teen porn xxx 225534

Watch Teen Sex Videos HD 1226 ryushare uploaded keep2share

Watch Teen Sex Videos HD 1226

Donwload sexx or prons 226772 ryushare uploaded keep2share

Donwload sexx or prons 226772

full 1280p xxx video 226633 ryushare uploaded keep2share

full 1280p xxx video 226633

very hot pron 226721 ryushare uploaded keep2share

very hot pron 226721

HD xxx videos direct mobi downloads 226051 ryushare uploaded keep2share

HD xxx videos direct mobi downloads 226051

Uliya – Special surprise for a sex date ryushare uploaded keep2share

Uliya – Special surprise for a sex date

Watch Teen Sex Videos HD 1216 ryushare uploaded keep2share

Watch Teen Sex Videos HD 1216

xxx teen clips 226044 ryushare uploaded keep2share

xxx teen clips 226044

wow so hot movies hd faapy xxx com ryushare uploaded keep2share

wow so hot movies hd faapy xxx com

TrickyMasseur.com Anjelica ryushare uploaded keep2share

TrickyMasseur.com Anjelica

Hot Japanese ryushare uploaded keep2share

Hot Japanese

Big Tits Teen HD ryushare uploaded keep2share

Big Tits Teen HD

Sandy Sweet – To Have And To Fuck ryushare uploaded keep2share

Sandy Sweet – To Have And To Fuck

Uploaded net porn 3849 ryushare uploaded keep2share

Uploaded net porn 3849

Report broken links / Post a comment

You must be logged in to post a comment.



General\r\nComplete name : D:Linda S - I'Am Your Woman.mp4\r\nFormat : MPEG-4\r\nFormat profile : Base Media\r\nCodec ID : isom\r\nFile size : 647 MiB\r\nDuration : 19mn 33s\r\nOverall bit rate : 4 628 Kbps\r\nMovie name : Downloaded from RARBG.COM\r\nWriting application : Lavf55.19.103\r\nComment : Downloaded from RARBG.COM\r\n\r\nVideo\r\nID : 1\r\nFormat : AVC\r\nFormat/Info : Advanced Video Codec\r\nFormat profile : [email protected]\r\nFormat settings, CABAC : Yes\r\nFormat settings, ReFrames : 2 frames\r\nCodec ID : avc1\r\nCodec ID/Info : Advanced Video Coding\r\nDuration : 19mn 33s\r\nBit rate : 4 513 Kbps\r\nWidth : 1 920 pixels\r\nHeight : 1 080 pixels\r\nDisplay aspect ratio : 16:9\r\nFrame rate mode : Constant\r\nFrame rate : 29.970 fps\r\nColor space : YUV\r\nChroma subsampling : 4:2:0\r\nBit depth : 8 bits\r\nScan type : Progressive\r\nBits/(Pixel*Frame) : 0.073\r\nStream size : 631 MiB (98%)\r\nWriting library : x264 core 102 r1666 d058f37\r\nEncoding settings : cabac=1 / ref=2 / deblock=1:0:0 / analyse=0x3:0x113 / me=hex / subme=6 / psy=1 / psy_rd=1.00:0.00 / mixed_ref=0 / me_range=16 / chroma_me=1 / trellis=0 / 8x8dct=1 / cqm=0 / deadzone=21,11 / fast_pskip=1 / chroma_qp_offset=-2 / threads=24 / sliced_threads=0 / nr=0 / decimate=1 / interlaced=0 / constrained_intra=0 / bframes=3 / b_pyramid=0 / b_adapt=1 / b_bias=0 / direct=3 / weightb=1 / open_gop=0 / weightp=2 / keyint=250 / keyint_min=25 / scenecut=40 / intra_refresh=0 / rc_lookahead=40 / rc=crf / mbtree=1 / crf=20.0 / qcomp=0.60 / qpmin=10 / qpmax=51 / qpstep=4 / ip_ratio=1.41 / aq=1:1.00\r\n\r\nAudio\r\nID : 2\r\nFormat : AAC\r\nFormat/Info : Advanced Audio Codec\r\nFormat profile : LC\r\nCodec ID : 40\r\nDuration : 19mn 33s\r\nBit rate mode : Constant\r\nBit rate : 107 Kbps\r\nChannel(s) : 2 channels\r\nChannel positions : Front: L R\r\nSampling rate : 44.1 KHz\r\nCompression mode : Lossy\r\nStream size : 15.0 MiB (2%)\r\n\r\n