Lola Taylor & Franck Franco – Saturday Night

Janna – Real Homemade Sex TapeSusan Ayn

Posted in HD Porn, Pornstar, Sex Movies, Teen | 8322 Views |


Rate this girl !!!




cover

\r\n

1920x1080p / MP4 / 1,01 GB

\r\n\r\n

[SexArt.com] Lola Taylor & Franck Franco – Saturday Night

\r\n \r\n

SCREENSHOTS:

\r\n

screens

\r\n



DOWNLOAD

Keep2share.cc - Uploaded.net - Openload.co - Rapidu.net


http://k2s.cc/file/37577af9a1f8a/S4tvrd4y-N1ght_S3x4rt-1O8Op.mp4

http://ul.to/4lq7tran/S4tvrd4y-N1ght_S3x4rt-1O8Op.mp4


Premium here:
uploaded.net
keep2share.cc
rapidu.net.cc


Teens related to Lola Taylor & Franck Franco – Saturday Night


K Daniela (Minimalist) 2014, Handjob, Blondes, 1080p ryushare uploaded keep2share

K Daniela (Minimalist) 2014, Handjob, Blondes, 1080p

xxx purn HD dawnlod ryushare uploaded keep2share

xxx purn HD dawnlod

Free Porn Videos Xxx Movies Pussy Porn 5324 ryushare uploaded keep2share

Free Porn Videos Xxx Movies Pussy Porn 5324

Masha – Fucking like elite whore ryushare uploaded keep2share

Masha – Fucking like elite whore

Young XXX Tube Videos 224031 ryushare uploaded keep2share

Young XXX Tube Videos 224031

Teen Porn XXX Tube 1144 ryushare uploaded keep2share

Teen Porn XXX Tube 1144

porn star lolaa telar ryushare uploaded keep2share

porn star lolaa telar

Porno movies young teens lesbian 5426 ryushare uploaded keep2share

Porno movies young teens lesbian 5426

pinkworld anal porn videos download mp4 ryushare uploaded keep2share

pinkworld anal porn videos download mp4

sexual sex xxx 226605 ryushare uploaded keep2share

sexual sex xxx 226605

www xxx videos dawnload com ryushare uploaded keep2share

www xxx videos dawnload com

Maria Pie And Nomi – Melting Like Butter ryushare uploaded keep2share

Maria Pie And Nomi – Melting Like Butter

Hd quality – Teen sex video 223701 ryushare uploaded keep2share

Hd quality – Teen sex video 223701

Gianna – Real Blonde Love Doll Screws Her BF ryushare uploaded keep2share

Gianna – Real Blonde Love Doll Screws Her BF

HDMassagePorn – Gianna – Sporty Blonde In Hot HD Porn ryushare uploaded keep2share

HDMassagePorn – Gianna – Sporty Blonde In Hot HD Porn

Porn party teen girls 224803 ryushare uploaded keep2share

Porn party teen girls 224803

Sweet Teen Porn – Young Porn Videos 224138 ryushare uploaded keep2share

Sweet Teen Porn – Young Porn Videos 224138

Small girls and boys porn 4002 ryushare uploaded keep2share

Small girls and boys porn 4002

Young Virgin Pussy Teen Fuck Tube 3398 ryushare uploaded keep2share

Young Virgin Pussy Teen Fuck Tube 3398

Small girls and boys porn 2683 ryushare uploaded keep2share

Small girls and boys porn 2683

Free Porn Videos Xxx Movies Pussy Porn 225348 ryushare uploaded keep2share

Free Porn Videos Xxx Movies Pussy Porn 225348

Hd quality – Teen sex video 1299 ryushare uploaded keep2share

Hd quality – Teen sex video 1299

Free Porn Videos Xxx Movies Pussy Porn 225817 ryushare uploaded keep2share

Free Porn Videos Xxx Movies Pussy Porn 225817

Teen Sex Movies Young Porn Tube Vids 225957 ryushare uploaded keep2share

Teen Sex Movies Young Porn Tube Vids 225957

Teen porn xxx 225802 ryushare uploaded keep2share

Teen porn xxx 225802

Girls do porn in HD 224295 ryushare uploaded keep2share

Girls do porn in HD 224295

www xxxfree vedio sexy com 226492 ryushare uploaded keep2share

www xxxfree vedio sexy com 226492

xxx 18 yars sex gurl download 226760 ryushare uploaded keep2share

xxx 18 yars sex gurl download 226760

Candice Dare – Shopping Spree ryushare uploaded keep2share

Candice Dare – Shopping Spree

Teen Tits Tube, Young Girls Porn Videos 3993 ryushare uploaded keep2share

Teen Tits Tube, Young Girls Porn Videos 3993

porne vedio mkv formate 226102 ryushare uploaded keep2share

porne vedio mkv formate 226102

8teen sex free movies com ryushare uploaded keep2share

8teen sex free movies com

21Naturals.com Ava Dalush – Puppeteer ryushare uploaded keep2share

21Naturals.com Ava Dalush – Puppeteer

HD SEX DOWNLOAD 100MB 226490 ryushare uploaded keep2share

HD SEX DOWNLOAD 100MB 226490

Teen Sex Movies 1141 ryushare uploaded keep2share

Teen Sex Movies 1141

Report broken links / Post a comment

You must be logged in to post a comment.



General\r\nComplete name : D:[SexArt.com] Lola Taylor & Franck Franco – Saturday Night-hd sex teens online free 1080p.mp4\r\nFormat : MPEG-4\r\nFormat profile : Base Media\r\nCodec ID : isom\r\nFile size : 1.01 GiB\r\nDuration : 17mn 45s\r\nOverall bit rate mode : Variable\r\nOverall bit rate : 8 129 Kbps\r\nEncoded date : UTC 2014-04-09 18:20:14\r\nTagged date : UTC 2014-04-09 18:20:14\r\nWriting application : Lavf53.32.100\r\n\r\nVideo\r\nID : 1\r\nFormat : AVC\r\nFormat/Info : Advanced Video Codec\r\nFormat profile : [email protected]\r\nFormat settings, CABAC : Yes\r\nFormat settings, ReFrames : 5 frames\r\nCodec ID : avc1\r\nCodec ID/Info : Advanced Video Coding\r\nDuration : 17mn 45s\r\nBit rate : 8 000 Kbps\r\nWidth : 1 920 pixels\r\nHeight : 1 080 pixels\r\nDisplay aspect ratio : 16:9\r\nFrame rate mode : Constant\r\nFrame rate : 23.976 fps\r\nColor space : YUV\r\nChroma subsampling : 4:2:0\r\nBit depth : 8 bits\r\nScan type : Progressive\r\nBits/(Pixel*Frame) : 0.161\r\nStream size : 1 015 MiB (98%)\r\nWriting library : x264 core 129 r2245 bc13772\r\nEncoding settings : cabac=1 / ref=5 / deblock=1:0:0 / analyse=0x3:0x113 / me=umh / subme=8 / psy=0 / mixed_ref=1 / me_range=16 / chroma_me=1 / trellis=1 / 8x8dct=1 / cqm=0 / deadzone=21,11 / fast_pskip=1 / chroma_qp_offset=0 / threads=36 / lookahead_threads=6 / sliced_threads=0 / nr=0 / decimate=1 / interlaced=0 / bluray_compat=0 / constrained_intra=0 / bframes=3 / b_pyramid=2 / b_adapt=2 / b_bias=0 / direct=3 / weightb=1 / open_gop=0 / weightp=2 / keyint=250 / keyint_min=25 / scenecut=40 / intra_refresh=0 / rc=2pass / mbtree=0 / bitrate=8000 / ratetol=1.0 / qcomp=0.60 / qpmin=10 / qpmax=51 / qpstep=4 / cplxblur=20.0 / qblur=0.5 / ip_ratio=1.40 / pb_ratio=1.30 / aq=1:1.00\r\nLanguage : English\r\nEncoded date : UTC 2014-04-09 18:20:14\r\nTagged date : UTC 2014-04-09 18:20:14\r\n\r\nAudio\r\nID : 2\r\nFormat : AAC\r\nFormat/Info : Advanced Audio Codec\r\nFormat profile : LC\r\nCodec ID : 40\r\nDuration : 17mn 45s\r\nBit rate mode : Variable\r\nBit rate : 128 Kbps\r\nChannel(s) : 2 channels\r\nChannel positions : Front: L R\r\nSampling rate : 44.1 KHz\r\nCompression mode : Lossy\r\nStream size : 16.2 MiB (2%)\r\nLanguage : English\r\nEncoded date : UTC 2014-04-09 18:20:14\r\nTagged date : UTC 2014-04-09 18:20:14\r\n\r\n