Lucy Li – 18OnlyGirls

Viktoria Diamond - Sinful Scarlet MoodDenni Fresh - 21Naturals

Posted in HD Porn, Pornstar, Sex Movies, Teen | 35744 Views |


Rate this girl !!!




[18OnlyGirls.com / WowFandom.com / WowGirls.com] Lucy Li (Pump My Twat / 26.11.13) [2013, Big Tits, Blowjob, Brunette, Handjob, Hardcore, POV, Pussy Licking, Shaved Pussy, 1080p]\r\npic\r\nDuration: 00:24:19\r\nType HD video: 1080p\r\nVideo Format: MP4\r\nVideo codec: H.264/AVC\r\nAudio codec: AAC\r\nVideo: MPEG4 Video (H264) 1920×1080 29.97fps 4969kbps\r\nAudio: AAC 44100Hz stereo 113kbps\r\n\r\nhttp://i60.fastpic.ru/big/2013/1126/d1/95143e36eb3731bec4e620ab8a5e13d1.jpg



DOWNLOAD

Keep2share.cc - Uploaded.net - Openload.co - Rapidu.net


http://keep2share.cc/file/52e8074a38ee5
http://ryushare.com/dbl6sjlipfmh/Pvmp_My_Tw4t_HD1o80.rar
http://ul.to/t3q46qfj


Premium here:
uploaded.net
keep2share.cc
rapidu.net.cc

Teens related to Lucy Li – 18OnlyGirls


High Definition Movies on HD 224800 ryushare uploaded keep2share

High Definition Movies on HD 224800

Free Porn Videos Xxx Movies Pussy Porn 224126 ryushare uploaded keep2share

Free Porn Videos Xxx Movies Pussy Porn 224126

Small girls and boys porn 4062 ryushare uploaded keep2share

Small girls and boys porn 4062

Free Young Porn Videos XXX Teen Porn 225794 ryushare uploaded keep2share

Free Young Porn Videos XXX Teen Porn 225794

FantasyHD.com – Emily Grey – Teen Thigh Gap ryushare uploaded keep2share

FantasyHD.com – Emily Grey – Teen Thigh Gap

sexs 18 hd indir 226449 ryushare uploaded keep2share

sexs 18 hd indir 226449

18 xxx potn srx 226432 ryushare uploaded keep2share

18 xxx potn srx 226432

Wow Porn Movies download) 224417 ryushare uploaded keep2share

Wow Porn Movies download) 224417

www sex all world hd com 226654 ryushare uploaded keep2share

www sex all world hd com 226654

HD Porn Video 5532 ryushare uploaded keep2share

HD Porn Video 5532

Young XXX Tube Videos 225357 ryushare uploaded keep2share

Young XXX Tube Videos 225357

www hd model sex telars hd com 226682 ryushare uploaded keep2share

www hd model sex telars hd com 226682

Teens sex mania 223990 ryushare uploaded keep2share

Teens sex mania 223990

Amy – Pick Up Fuck With Blonde In Hot Lingerie ryushare uploaded keep2share

Amy – Pick Up Fuck With Blonde In Hot Lingerie

Teenies Videos – Teen Porn, Teen Sex, XXX Free Videos 4372 ryushare uploaded keep2share

Teenies Videos – Teen Porn, Teen Sex, XXX Free Videos 4372

Sweet Teen Porn – Young Porn Videos 225837 ryushare uploaded keep2share

Sweet Teen Porn – Young Porn Videos 225837

18OnlyGirls – Natasha – 25 Clips Video Pack ryushare uploaded keep2share

18OnlyGirls – Natasha – 25 Clips Video Pack

Uploaded net porn XXX 225478 ryushare uploaded keep2share

Uploaded net porn XXX 225478

download free xxx sex hd 226387 ryushare uploaded keep2share

download free xxx sex hd 226387

image sexxxx porn 226599 ryushare uploaded keep2share

image sexxxx porn 226599

Hd young videos 225308 ryushare uploaded keep2share

Hd young videos 225308

Orgy with pornstar young blonde teen ryushare uploaded keep2share

Orgy with pornstar young blonde teen

HD Sex World Videos High Definition Free Porn 225104 ryushare uploaded keep2share

HD Sex World Videos High Definition Free Porn 225104

Teen Sex Movies 224484 ryushare uploaded keep2share

Teen Sex Movies 224484

www HD sex videoxxx com ryushare uploaded keep2share

www HD sex videoxxx com

tube8hd video ryushare uploaded keep2share

tube8hd video

Young legal porn clips 3535 ryushare uploaded keep2share

Young legal porn clips 3535

young prom xxx sex video hd download ryushare uploaded keep2share

young prom xxx sex video hd download

Teen porn xxx 224950 ryushare uploaded keep2share

Teen porn xxx 224950

Porn teen hd downloads 224965 ryushare uploaded keep2share

Porn teen hd downloads 224965

ClubSeventeen.com SiteRip – Part 2 ryushare uploaded keep2share

ClubSeventeen.com SiteRip – Part 2

8teen sex free movies com ryushare uploaded keep2share

8teen sex free movies com

Free High Quality Sex Movies 5357 ryushare uploaded keep2share

Free High Quality Sex Movies 5357

Grace Hot Teen ryushare uploaded keep2share

Grace Hot Teen

Teen Sex Movies 2658 ryushare uploaded keep2share

Teen Sex Movies 2658

Report broken links / Post a comment

You must be logged in to post a comment.



General\r\nComplete name : D:18OnlyGirls.com / WowFandom.com / WowGirls.com] Lucy Li (Pump My Twat / 26.11.13) [2013, Big Tits, Blowjob, Brunette, Handjob, Hardcore, POV, Pussy Licking, Shaved Pussy, 1080pPump_My_Twat_HD1080.mp4\r\nFormat : MPEG-4\r\nFormat profile : Base Media\r\nCodec ID : isom\r\nFile size : 885 MiB\r\nDuration : 24mn 18s\r\nOverall bit rate mode : Variable\r\nOverall bit rate : 5 088 Kbps\r\nMovie name : Download from HDteenmania.com\r\nWriting application : Lavf52.64.2\r\nComment : Download from HDteenmania.com\r\n\r\nVideo\r\nID : 1\r\nFormat : AVC\r\nFormat/Info : Advanced Video Codec\r\nFormat profile : [email protected]\r\nFormat settings, CABAC : Yes\r\nFormat settings, ReFrames : 2 frames\r\nCodec ID : avc1\r\nCodec ID/Info : Advanced Video Coding\r\nDuration : 24mn 18s\r\nBit rate : 4 970 Kbps\r\nWidth : 1 920 pixels\r\nHeight : 1 080 pixels\r\nDisplay aspect ratio : 16:9\r\nFrame rate mode : Constant\r\nFrame rate : 29.970 fps\r\nColor space : YUV\r\nChroma subsampling : 4:2:0\r\nBit depth : 8 bits\r\nScan type : Progressive\r\nBits/(Pixel*Frame) : 0.080\r\nStream size : 864 MiB (98%)\r\nWriting library : x264 core 102 r1666 d058f37\r\nEncoding settings : cabac=1 / ref=2 / deblock=1:0:0 / analyse=0x3:0x113 / me=hex / subme=6 / psy=1 / psy_rd=1.00:0.00 / mixed_ref=0 / me_range=16 / chroma_me=1 / trellis=0 / 8x8dct=1 / cqm=0 / deadzone=21,11 / fast_pskip=1 / chroma_qp_offset=-2 / threads=24 / sliced_threads=0 / nr=0 / decimate=1 / interlaced=0 / constrained_intra=0 / bframes=3 / b_pyramid=0 / b_adapt=1 / b_bias=0 / direct=3 / weightb=1 / open_gop=0 / weightp=2 / keyint=250 / keyint_min=25 / scenecut=40 / intra_refresh=0 / rc_lookahead=40 / rc=crf / mbtree=1 / crf=20.0 / qcomp=0.60 / qpmin=10 / qpmax=51 / qpstep=4 / ip_ratio=1.41 / aq=1:1.00\r\n\r\nAudio\r\nID : 2\r\nFormat : AAC\r\nFormat/Info : Advanced Audio Codec\r\nFormat profile : LC\r\nCodec ID : 40\r\nDuration : 24mn 18s\r\nBit rate mode : Variable\r\nBit rate : 113 Kbps\r\nChannel(s) : 2 channels\r\nChannel positions : Front: L R\r\nSampling rate : 44.1 KHz\r\nCompression mode : Lossy\r\nStream size : 19.7 MiB (2%)\r\n\r\n