Maria Pie And Nomi – Melting Like Butter

Kiki – Panties Free DayLinda S – Making Up For Lost Time

Posted in HD Porn, Lesbian, Pornstar, Sex Movies, Teen | 8499 Views |


Rate this girl !!!




[WowGirls.com] Maria Pie And Nomi – Melting Like Butter

\r\n

cover

\r\n

1920x1080p / MP4 / 988.37 MB

\r\n

SCREENSHOTS:

\r\n

screens

\r\n



DOWNLOAD

Keep2share.cc - Uploaded.net - Openload.co - Rapidu.net


http://fileom.com/dabb71027rcs/Me.lting_L.ike_Bu.tter.mp4.html
http://ul.to/twnv8s7a/Me.lting%20L.ike%20Bu.tter.mp4
http://k2s.cc/file/af6e488ba8d31/Me.lting_L.ike_Bu.tter.mp4


Premium here:
uploaded.net
keep2share.cc
rapidu.net.cc


Teens related to Maria Pie And Nomi – Melting Like Butter


www wow com/yuoporn 226532 ryushare uploaded keep2share

www wow com/yuoporn 226532

yangs xxxhd89 226700 ryushare uploaded keep2share

yangs xxxhd89 226700

Hardcore Sex Hub 225234 ryushare uploaded keep2share

Hardcore Sex Hub 225234

Amateur Teen Sex 224827 ryushare uploaded keep2share

Amateur Teen Sex 224827

Anjelica – My Inner Feelings ryushare uploaded keep2share

Anjelica – My Inner Feelings

HD Porn Teen Sex Videos 2182 ryushare uploaded keep2share

HD Porn Teen Sex Videos 2182

Hardcore sex videos in the high definition quality 5403 ryushare uploaded keep2share

Hardcore sex videos in the high definition quality 5403

Lucy Li & William Zeff – With Love ryushare uploaded keep2share

Lucy Li & William Zeff – With Love

Teens in Porno young porn videos and free teen sex 1672 ryushare uploaded keep2share

Teens in Porno young porn videos and free teen sex 1672

PORN HUB HQ SEXY DUONLOD com 226478 ryushare uploaded keep2share

PORN HUB HQ SEXY DUONLOD com 226478

My bigtits girlfriend fornication – in the sack ryushare uploaded keep2share

My bigtits girlfriend fornication – in the sack

[TeensLikeItBig.com / Brazzers.com] Layla London (My Stepdaughter Loves Porn / 30.11.2016) [2016 г., Big Naturals,Big Tits,Big Tits Worship,Brunette,Cheating,Couples Fantasies,Natural Tits,Stepdaughter, 1080p] ryushare uploaded keep2share

[TeensLikeItBig.com / Brazzers.com] Layla London (My Stepdaughter Loves Porn / 30.11.2016) [2016 г., Big Naturals,Big Tits,Big Tits Worship,Brunette,Cheating,Couples Fantasies,Natural Tits,Stepdaughter, 1080p]

College Teen Sex 5112 ryushare uploaded keep2share

College Teen Sex 5112

Lucy Li – Perky Teen Lucy Li Gets Lathered download in hd 226168 ryushare uploaded keep2share

Lucy Li – Perky Teen Lucy Li Gets Lathered download in hd 226168

Teenies Videos – Teen Porn, Teen Sex, XXX Free Videos 2957 ryushare uploaded keep2share

Teenies Videos – Teen Porn, Teen Sex, XXX Free Videos 2957

Wow girls hd porn teens 224738 ryushare uploaded keep2share

Wow girls hd porn teens 224738

Uliya – Special surprise for a sex date ryushare uploaded keep2share

Uliya – Special surprise for a sex date

Hardcore Sex Hub 224876 ryushare uploaded keep2share

Hardcore Sex Hub 224876

Wow porn tube movies 4008 ryushare uploaded keep2share

Wow porn tube movies 4008

Karol Lilien – Sounds Of Passion ryushare uploaded keep2share

Karol Lilien – Sounds Of Passion

CastingCouch X Jayden Full HD ryushare uploaded keep2share

CastingCouch X Jayden Full HD

www 18 xxxvids com 226627 ryushare uploaded keep2share

www 18 xxxvids com 226627

http//sexy hd video phtt sexy hd 12 ayer girls com ryushare uploaded keep2share

http//sexy hd video phtt sexy hd 12 ayer girls com

Delectable Daydreams (1080p) ryushare uploaded keep2share

Delectable Daydreams (1080p)

Free Porn Videos Xxx Movies Pussy Porn 3704 ryushare uploaded keep2share

Free Porn Videos Xxx Movies Pussy Porn 3704

Watch Teen Sex Videos HD 225363 ryushare uploaded keep2share

Watch Teen Sex Videos HD 225363

Free High Quality Sex Movies 5357 ryushare uploaded keep2share

Free High Quality Sex Movies 5357

Sweet Teen Porn – Young Porn Videos 224044 ryushare uploaded keep2share

Sweet Teen Porn – Young Porn Videos 224044

Wow Girls Porn Clips download 5439 ryushare uploaded keep2share

Wow Girls Porn Clips download 5439

Wow Girls Porn Clips download 224301 ryushare uploaded keep2share

Wow Girls Porn Clips download 224301

Young xxx 225572 ryushare uploaded keep2share

Young xxx 225572

Hot Teen Sex HD videos 225223 ryushare uploaded keep2share

Hot Teen Sex HD videos 225223

Amateur Teen Sex 5388 ryushare uploaded keep2share

Amateur Teen Sex 5388

sexy video download hd in low mb 226202 ryushare uploaded keep2share

sexy video download hd in low mb 226202

8 Teen XXX – Teen Sex 225082 ryushare uploaded keep2share

8 Teen XXX – Teen Sex 225082

Report broken links / Post a comment

You must be logged in to post a comment.



General\r\nComplete name : D:[WowGirls.com] Maria Pie And Nomi – Melting Like Butter .mp4\r\nFormat : MPEG-4\r\nFormat profile : Base Media\r\nCodec ID : isom\r\nFile size : 988 MiB\r\nDuration : 25mn 4s\r\nOverall bit rate mode : Variable\r\nOverall bit rate : 5 512 Kbps\r\nWriting application : Lavf55.33.100\r\n\r\nVideo\r\nID : 1\r\nFormat : AVC\r\nFormat/Info : Advanced Video Codec\r\nFormat profile : [email protected]\r\nFormat settings, CABAC : Yes\r\nFormat settings, ReFrames : 5 frames\r\nCodec ID : avc1\r\nCodec ID/Info : Advanced Video Coding\r\nDuration : 25mn 4s\r\nBit rate : 5 395 Kbps\r\nWidth : 1 920 pixels\r\nHeight : 1 080 pixels\r\nDisplay aspect ratio : 16:9\r\nFrame rate mode : Constant\r\nFrame rate : 29.970 fps\r\nColor space : YUV\r\nChroma subsampling : 4:2:0\r\nBit depth : 8 bits\r\nScan type : Progressive\r\nBits/(Pixel*Frame) : 0.087\r\nStream size : 967 MiB (98%)\r\nWriting library : x264 core 138\r\nEncoding settings : cabac=1 / ref=5 / deblock=1:-1:-1 / analyse=0x3:0x113 / me=umh / subme=8 / psy=1 / psy_rd=1.00:0.15 / mixed_ref=1 / me_range=16 / chroma_me=1 / trellis=1 / 8x8dct=1 / cqm=0 / deadzone=21,11 / fast_pskip=1 / chroma_qp_offset=-3 / threads=8 / lookahead_threads=1 / sliced_threads=0 / nr=0 / decimate=1 / interlaced=0 / bluray_compat=0 / constrained_intra=0 / bframes=3 / b_pyramid=2 / b_adapt=2 / b_bias=0 / direct=3 / weightb=1 / open_gop=0 / weightp=2 / keyint=250 / keyint_min=25 / scenecut=40 / intra_refresh=0 / rc_lookahead=50 / rc=crf / mbtree=1 / crf=20.0 / qcomp=0.60 / qpmin=0 / qpmax=69 / qpstep=4 / ip_ratio=1.40 / aq=1:1.00\r\nLanguage : Russian\r\n\r\nAudio\r\nID : 2\r\nFormat : AAC\r\nFormat/Info : Advanced Audio Codec\r\nFormat profile : LC\r\nCodec ID : 40\r\nDuration : 25mn 4s\r\nBit rate mode : Variable\r\nBit rate : 108 Kbps\r\nMaximum bit rate : 192 Kbps\r\nChannel(s) : 2 channels\r\nChannel positions : Front: L R\r\nSampling rate : 44.1 KHz\r\nCompression mode : Lossy\r\nStream size : 19.3 MiB (2%)\r\nLanguage : Russian\r\n\r\n