Milagres – A Cool Tool For Me

Kiara Lord – Offline EroticaJessie Volt, Sierra Nevadah – Blonde Seduction

Posted in HD Porn, Solo, Teen | 9931 Views |


Rate this girl !!!




cover

\r\n

1920x1080p / MP4 / 446.66 MB

\r\n\r\n

[WowGirls.com] Milagres – A Cool Tool For Me

\r\n \r\n

SCREENSHOTS:

\r\n

screens



DOWNLOAD

Keep2share.cc - Uploaded.net - Openload.co - Rapidu.net



http://k2s.cc/file/3924331e1b17c/M1l4gr3s.mp4

http://ul.to/17o7rztf/M1l4gr3s.mp4


Premium here:
uploaded.net
keep2share.cc
rapidu.net.cc


Teens related to Milagres – A Cool Tool For Me


Teen Sex Movies Young Porn Tube Vids 5179 ryushare uploaded keep2share

Teen Sex Movies Young Porn Tube Vids 5179

Porn teen hd downloads 5641 ryushare uploaded keep2share

Porn teen hd downloads 5641

Nubiles.net Olivia Devine – Outdoor Orgasm ryushare uploaded keep2share

Nubiles.net Olivia Devine – Outdoor Orgasm

Fresh Teen Videos 224890 ryushare uploaded keep2share

Fresh Teen Videos 224890

nubilefilms com/youporn december 2014 226042 ryushare uploaded keep2share

nubilefilms com/youporn december 2014 226042

Hot Teen Sex 224944 ryushare uploaded keep2share

Hot Teen Sex 224944

big boobs teen 226172 ryushare uploaded keep2share

big boobs teen 226172

Young XXX Tube Videos 224700 ryushare uploaded keep2share

Young XXX Tube Videos 224700

First time Sexual Films 18 sex xxx 5336 ryushare uploaded keep2share

First time Sexual Films 18 sex xxx 5336

Teen Sex Porn Videos Free Nude Teens 5214 ryushare uploaded keep2share

Teen Sex Porn Videos Free Nude Teens 5214

Download young porn sex 224839 ryushare uploaded keep2share

Download young porn sex 224839

tube sex 17 girl ryushare uploaded keep2share

tube sex 17 girl

caprice videos xxx ryushare uploaded keep2share

caprice videos xxx

Tube xxx 223693 ryushare uploaded keep2share

Tube xxx 223693

HD Porn Video 1701 ryushare uploaded keep2share

HD Porn Video 1701

Chelsea – First & Forever ryushare uploaded keep2share

Chelsea – First & Forever

SONJA N – fuck my natural hairy pussy ryushare uploaded keep2share

SONJA N – fuck my natural hairy pussy

Sweet Teen Porn – Young Porn Videos 224820 ryushare uploaded keep2share

Sweet Teen Porn – Young Porn Videos 224820

www free hd short porn clips ryushare uploaded keep2share

www free hd short porn clips

Vera – Fuck Me, My Love! ryushare uploaded keep2share

Vera – Fuck Me, My Love!

Amazing Outdoors – Beautiful Brunette ryushare uploaded keep2share

Amazing Outdoors – Beautiful Brunette

HD Porn Videos 1376 ryushare uploaded keep2share

HD Porn Videos 1376

Uploaded net porn XXX 224573 ryushare uploaded keep2share

Uploaded net porn XXX 224573

Teenage Fuck Clips 1591 ryushare uploaded keep2share

Teenage Fuck Clips 1591

HD Porn Teen Sex Videos 5198 ryushare uploaded keep2share

HD Porn Teen Sex Videos 5198

teenssexdownloa 226445 ryushare uploaded keep2share

teenssexdownloa 226445

Hot sex girls movies download 2609 ryushare uploaded keep2share

Hot sex girls movies download 2609

Adult Hardcore XXX Sex Videos 225378 ryushare uploaded keep2share

Adult Hardcore XXX Sex Videos 225378

Sex Teens porn movies 3015 ryushare uploaded keep2share

Sex Teens porn movies 3015

sekxi hd video porn ryushare uploaded keep2share

sekxi hd video porn

download pc porno movie ryushare uploaded keep2share

download pc porno movie

hdsex movea com 226516 ryushare uploaded keep2share

hdsex movea com 226516

Hot Teen Sex 2988 ryushare uploaded keep2share

Hot Teen Sex 2988

PORNOZZ FULL 720 226768 ryushare uploaded keep2share

PORNOZZ FULL 720 226768

Good Teen Tube Sexy Young Naked Girls Movies 225833 ryushare uploaded keep2share

Good Teen Tube Sexy Young Naked Girls Movies 225833

Comments (2)

can’t see the download link !?

Im checking….

Report broken links / Post a comment

You must be logged in to post a comment.



General\r\nComplete name : D:[WowGirls.com] Milagres – A Cool Tool For Me.mp4\r\nFormat : MPEG-4\r\nFormat profile : Base Media\r\nCodec ID : isom\r\nFile size : 447 MiB\r\nDuration : 17mn 7s\r\nOverall bit rate : 3 648 Kbps\r\nMovie name : ES\r\nTagged date : UTC 2014-08-31 04:11:10\r\nWriting application : Lavf55.48.100\r\n\r\nVideo\r\nID : 1\r\nFormat : AVC\r\nFormat/Info : Advanced Video Codec\r\nFormat profile : [email protected]\r\nFormat settings, CABAC : Yes\r\nFormat settings, ReFrames : 5 frames\r\nCodec ID : avc1\r\nCodec ID/Info : Advanced Video Coding\r\nDuration : 17mn 7s\r\nBit rate : 3 490 Kbps\r\nWidth : 1 920 pixels\r\nHeight : 1 080 pixels\r\nDisplay aspect ratio : 16:9\r\nFrame rate mode : Constant\r\nFrame rate : 25.000 fps\r\nColor space : YUV\r\nChroma subsampling : 4:2:0\r\nBit depth : 8 bits\r\nScan type : Progressive\r\nBits/(Pixel*Frame) : 0.067\r\nStream size : 427 MiB (96%)\r\nWriting library : x264 core 138\r\nEncoding settings : cabac=1 / ref=5 / deblock=1:-1:-1 / analyse=0x3:0x113 / me=umh / subme=8 / psy=1 / psy_rd=1.00:0.15 / mixed_ref=1 / me_range=16 / chroma_me=1 / trellis=1 / 8x8dct=1 / cqm=0 / deadzone=21,11 / fast_pskip=1 / chroma_qp_offset=-3 / threads=8 / lookahead_threads=1 / sliced_threads=0 / nr=0 / decimate=1 / interlaced=0 / bluray_compat=0 / constrained_intra=0 / bframes=3 / b_pyramid=2 / b_adapt=2 / b_bias=0 / direct=3 / weightb=1 / open_gop=0 / weightp=2 / keyint=250 / keyint_min=25 / scenecut=40 / intra_refresh=0 / rc_lookahead=50 / rc=crf / mbtree=1 / crf=20.0 / qcomp=0.60 / qpmin=0 / qpmax=69 / qpstep=4 / ip_ratio=1.40 / aq=1:1.00\r\nLanguage : Russian\r\n\r\nAudio\r\nID : 2\r\nFormat : AAC\r\nFormat/Info : Advanced Audio Codec\r\nFormat profile : LC\r\nCodec ID : 40\r\nDuration : 17mn 7s\r\nBit rate mode : Constant\r\nBit rate : 151 Kbps\r\nChannel(s) : 2 channels\r\nChannel positions : Front: L R\r\nSampling rate : 44.1 KHz\r\nCompression mode : Lossy\r\nStream size : 18.5 MiB (4%)\r\nLanguage : Russian\r\n\r\n