Nubilefilms.com Elena Rae – Russian Beauty

YoungCourtesans.com Shakti – Special Sex ArrangementNubileFilms.com Karol Lilien – Sounds Of Passion

Posted in HD Porn, Pornstar, Sex Movies, Teen | 15627 Views |


Rate this girl !!!




cover\r\n\r\n1920x1080p / MP4 / 1.03 GB\r\n

[Nubilefilms.com] Elena Rae – Russian Beauty

\r\nSCREENSHOTS:\r\n\r\nscreens



DOWNLOAD

Keep2share.cc - Uploaded.net - Openload.co - Rapidu.net


http://played.to/bg8fcfondpnx

http://ul.to/6fry3wx1/nvb1l3f1lms.rvss14n.b34vty.192o.mp4


Premium here:
uploaded.net
keep2share.cc
rapidu.net.cc


Teens related to Nubilefilms.com Elena Rae – Russian Beauty


Wow girls porn teens 2612 ryushare uploaded keep2share

Wow girls porn teens 2612

Lola Taylor & Franck Franco – Saturday Night ryushare uploaded keep2share

Lola Taylor & Franck Franco – Saturday Night

HD Sex World Videos High Definition Free Porn 225387 ryushare uploaded keep2share

HD Sex World Videos High Definition Free Porn 225387

First time Sexual Films 18 sex xxx 225849 ryushare uploaded keep2share

First time Sexual Films 18 sex xxx 225849

8 Teen XXX – Teen Sex 2973 ryushare uploaded keep2share

8 Teen XXX – Teen Sex 2973

Watch Teen Sex Videos HD 224129 ryushare uploaded keep2share

Watch Teen Sex Videos HD 224129

Kiki Vidis ryushare uploaded keep2share

Kiki Vidis

Teen Sex Movies 1242 ryushare uploaded keep2share

Teen Sex Movies 1242

Orgy with pornstar young blonde teen ryushare uploaded keep2share

Orgy with pornstar young blonde teen

Teen Sex Movies 225206 ryushare uploaded keep2share

Teen Sex Movies 225206

Teenies Videos – Teen Porn, Teen Sex, XXX Free Videos 5072 ryushare uploaded keep2share

Teenies Videos – Teen Porn, Teen Sex, XXX Free Videos 5072

Young XXX Tube Videos 3935 ryushare uploaded keep2share

Young XXX Tube Videos 3935

Hardcore Sex Hub 4176 ryushare uploaded keep2share

Hardcore Sex Hub 4176

High Definition Movies on HD Teen Porn XXX Tube 2367 ryushare uploaded keep2share

High Definition Movies on HD Teen Porn XXX Tube 2367

First time Sexual Films 18 sex xxx 2101 ryushare uploaded keep2share

First time Sexual Films 18 sex xxx 2101

Tube xxx 224727 ryushare uploaded keep2share

Tube xxx 224727

pc xxx movie clips 226764 ryushare uploaded keep2share

pc xxx movie clips 226764

Porn teen hd downloads 224965 ryushare uploaded keep2share

Porn teen hd downloads 224965

HD1080 porno nude act movie 226709 ryushare uploaded keep2share

HD1080 porno nude act movie 226709

xxx video hd romantik downlod ryushare uploaded keep2share

xxx video hd romantik downlod

fresh teen full hd sex ryushare uploaded keep2share

fresh teen full hd sex

hd low space porn video ryushare uploaded keep2share

hd low space porn video

Sex in the morning ryushare uploaded keep2share

Sex in the morning

Nude Teens fucking hard 2774 ryushare uploaded keep2share

Nude Teens fucking hard 2774

Young Sex Movies 4407 ryushare uploaded keep2share

Young Sex Movies 4407

Teen 18 Porn XXX Clips Naked 3075 ryushare uploaded keep2share

Teen 18 Porn XXX Clips Naked 3075

Wow porn hd downloads 224041 ryushare uploaded keep2share

Wow porn hd downloads 224041

Porn teen hd downloads 224289 ryushare uploaded keep2share

Porn teen hd downloads 224289

wwwhd sax 99 com ryushare uploaded keep2share

wwwhd sax 99 com

Hd young videos 224121 ryushare uploaded keep2share

Hd young videos 224121

High Definition Movies on HD Teen Porn XXX Tube 2700 ryushare uploaded keep2share

High Definition Movies on HD Teen Porn XXX Tube 2700

Fresh Teen Videos 3763 ryushare uploaded keep2share

Fresh Teen Videos 3763

grace c Creampie-Angels ryushare uploaded keep2share

grace c Creampie-Angels

Jasmine Caro – All day long ryushare uploaded keep2share

Jasmine Caro – All day long

Lucy Li & William Zeff – With Love ryushare uploaded keep2share

Lucy Li & William Zeff – With Love

Report broken links / Post a comment

You must be logged in to post a comment.



[Nubilefilms.com] Elena Rae – Russian Beauty\r\nGeneral\r\nComplete name : J:HD Teens Movies Young Downloads Online Clips Scenes 2 [Nubilefilms.com] Elena Rae – Russian Beauty.192o.mp4\r\nFormat : MPEG-4\r\nFormat profile : Base Media\r\nCodec ID : isom\r\nFile size : 1.03 GiB\r\nDuration : 19mn 30s\r\nOverall bit rate mode : Variable\r\nOverall bit rate : 7 539 Kbps\r\nWriting application : Lavf55.37.101\r\n\r\nVideo\r\nID : 1\r\nFormat : AVC\r\nFormat/Info : Advanced Video Codec\r\nFormat profile : [email protected]\r\nFormat settings, CABAC : Yes\r\nFormat settings, ReFrames : 4 frames\r\nCodec ID : avc1\r\nCodec ID/Info : Advanced Video Coding\r\nDuration : 19mn 30s\r\nBit rate : 7 419 Kbps\r\nWidth : 1 920 pixels\r\nHeight : 1 080 pixels\r\nDisplay aspect ratio : 16:9\r\nFrame rate mode : Constant\r\nFrame rate : 23.976 fps\r\nColor space : YUV\r\nChroma subsampling : 4:2:0\r\nBit depth : 8 bits\r\nScan type : Progressive\r\nBits/(Pixel*Frame) : 0.149\r\nStream size : 1.01 GiB (98%)\r\nWriting library : x264 core 142\r\nEncoding settings : cabac=1 / ref=2 / deblock=1:-1:-1 / analyse=0x1:0x111 / me=umh / subme=8 / psy=1 / psy_rd=1.00:0.15 / mixed_ref=1 / me_range=16 / chroma_me=1 / trellis=1 / 8x8dct=0 / cqm=0 / deadzone=21,11 / fast_pskip=1 / chroma_qp_offset=-3 / threads=24 / lookahead_threads=4 / sliced_threads=0 / nr=0 / decimate=1 / interlaced=0 / bluray_compat=0 / constrained_intra=0 / bframes=3 / b_pyramid=2 / b_adapt=2 / b_bias=0 / direct=3 / weightb=1 / open_gop=0 / weightp=0 / keyint=240 / keyint_min=24 / scenecut=40 / intra_refresh=0 / rc_lookahead=50 / rc=crf / mbtree=1 / crf=18.0 / qcomp=0.60 / qpmin=0 / qpmax=69 / qpstep=4 / ip_ratio=1.40 / aq=1:1.00\r\nLanguage : English\r\n\r\nAudio\r\nID : 2\r\nFormat : AAC\r\nFormat/Info : Advanced Audio Codec\r\nFormat profile : LC\r\nCodec ID : 40\r\nDuration : 19mn 30s\r\nDuration_LastFrame : -11ms\r\nBit rate mode : Variable\r\nBit rate : 115 Kbps\r\nMaximum bit rate : 196 Kbps\r\nChannel count : 2 channels\r\nChannel positions : Front: L R\r\nSampling rate : 44.1 KHz\r\nCompression mode : Lossy\r\nStream size : 16.0 MiB (2%)\r\nLanguage : English\r\n\r\n\r\n