Orgy with young teens

Young russian - ClubseventeenCouple of angels

Posted in HD Porn, Sex Movies, Teen, Threesome | 12307 Views |


Rate this girl !!!




\r\n\r\n9.jpeg



DOWNLOAD

Keep2share.cc - Uploaded.net - Openload.co - Rapidu.net


http://keep2share.cc/file/52e5b3214edd1
http://ryushare.com/w4dnwvkfkv6x/FSBGMRdl.rar
http://ul.to/o910syky


Premium here:
uploaded.net
keep2share.cc
rapidu.net.cc


Tags: ,

Teens related to Orgy with young teens


Hardcore Sex Hub 224542 ryushare uploaded keep2share

Hardcore Sex Hub 224542

K Two Teasing Tongues 8 B ryushare uploaded keep2share

K Two Teasing Tongues 8 B

Hd blonde bang 226409 ryushare uploaded keep2share

Hd blonde bang 226409

August – August Fantasy ryushare uploaded keep2share

August – August Fantasy

Teen Sex Movies 1635 ryushare uploaded keep2share

Teen Sex Movies 1635

Teen acrobat sex ryushare uploaded keep2share

Teen acrobat sex

Teens in Porno young porn videos and free teen sex 225592 ryushare uploaded keep2share

Teens in Porno young porn videos and free teen sex 225592

Naughty Temptress – Capri Anderson ryushare uploaded keep2share

Naughty Temptress – Capri Anderson

beautifull girls fuck ryushare uploaded keep2share

beautifull girls fuck

Hot Teen Sex HD videos 224002 ryushare uploaded keep2share

Hot Teen Sex HD videos 224002

HD Teens Sex Tube Videos XxX 3546 ryushare uploaded keep2share

HD Teens Sex Tube Videos XxX 3546

Sexy white skin teen porn young 226422 ryushare uploaded keep2share

Sexy white skin teen porn young 226422

HD Porn Videos 5360 ryushare uploaded keep2share

HD Porn Videos 5360

The best Teen sex 225598 ryushare uploaded keep2share

The best Teen sex 225598

xxx 18 yars sex gurl download 226760 ryushare uploaded keep2share

xxx 18 yars sex gurl download 226760

NubilesPorn.com Jessie Volt – Juste Toi Et Moi ryushare uploaded keep2share

NubilesPorn.com Jessie Volt – Juste Toi Et Moi

Young xxx 224310 ryushare uploaded keep2share

Young xxx 224310

Wow Porn Movies download) 225955 ryushare uploaded keep2share

Wow Porn Movies download) 225955

Hot Teen Sex 224413 ryushare uploaded keep2share

Hot Teen Sex 224413

Babes Giselle Leon 1080p ryushare uploaded keep2share

Babes Giselle Leon 1080p

hd sex videos 1080p download for pc ryushare uploaded keep2share

hd sex videos 1080p download for pc

Hardcore sex videos in the high definition quality 2214 ryushare uploaded keep2share

Hardcore sex videos in the high definition quality 2214

xxxx clips hd download 226318 ryushare uploaded keep2share

xxxx clips hd download 226318

Edge play with Anabelle and Ashlynn ryushare uploaded keep2share

Edge play with Anabelle and Ashlynn

[Spizoo.com]  (Romi Rain Hires A Gigolo / 01.12.2016) ryushare uploaded keep2share

[Spizoo.com] (Romi Rain Hires A Gigolo / 01.12.2016)

Teen xxx sex hd 224959 ryushare uploaded keep2share

Teen xxx sex hd 224959

[RylskyArt.com] Gia – Shadows ryushare uploaded keep2share

[RylskyArt.com] Gia – Shadows

Wow porn tube movies 4986 ryushare uploaded keep2share

Wow porn tube movies 4986

[AbbyWinters.com] Sasha R. ryushare uploaded keep2share

[AbbyWinters.com] Sasha R.

Model porno sex 4859 ryushare uploaded keep2share

Model porno sex 4859

The best Teen sex 225855 ryushare uploaded keep2share

The best Teen sex 225855

www first time hdsex com ryushare uploaded keep2share

www first time hdsex com

Girls do porn in HD 225372 ryushare uploaded keep2share

Girls do porn in HD 225372

Teen Sex Movies Young Porn Tube Vids 4969 ryushare uploaded keep2share

Teen Sex Movies Young Porn Tube Vids 4969

XXX young porn sex 3489 ryushare uploaded keep2share

XXX young porn sex 3489

Report broken links / Post a comment

You must be logged in to post a comment.



General\r\nComplete name : D:Orgy with young teensFSBGMRdl.wmv\r\nFormat : Windows Media\r\nFile size : 814 MiB\r\nDuration : 25mn 51s\r\nOverall bit rate mode : Constant\r\nOverall bit rate : 4 402 Kbps\r\nMaximum Overall bit rate : 5 290 Kbps\r\nPerformer : Royal-Cash.com\r\nEncoded date : UTC 2014-01-23 13:37:54.992\r\nCopyright : Royal-Cash.com\r\n\r\nVideo\r\nID : 2\r\nFormat : VC-1\r\nFormat profile : [email protected]\r\nCodec ID : WMV3\r\nCodec ID/Info : Windows Media Video 9\r\nCodec ID/Hint : WMV3\r\nDescription of the codec : Windows Media Video 9 - Professional\r\nDuration : 25mn 51s\r\nBit rate mode : Constant\r\nBit rate : 5 120 Kbps\r\nWidth : 1 280 pixels\r\nHeight : 720 pixels\r\nDisplay aspect ratio : 16:9\r\nFrame rate : 25.000 fps\r\nColor space : YUV\r\nChroma subsampling : 4:2:0\r\nBit depth : 8 bits\r\nScan type : Progressive\r\nCompression mode : Lossy\r\nBits/(Pixel*Frame) : 0.222\r\nStream size : 947 MiB\r\nLanguage : Russian\r\nNumberOfFrames : 38781\r\n\r\nAudio\r\nID : 1\r\nFormat : WMA\r\nFormat version : Version 2\r\nCodec ID : 161\r\nCodec ID/Info : Windows Media Audio\r\nDescription of the codec : Windows Media Audio 9.2 - 128 kbps, 44 kHz, stereo 1-pass CBR\r\nDuration : 25mn 51s\r\nBit rate mode : Constant\r\nBit rate : 128 Kbps\r\nChannel(s) : 2 channels\r\nSampling rate : 44.1 KHz\r\nBit depth : 16 bits\r\nStream size : 23.7 MiB (3%)\r\nLanguage : Russian\r\nNumberOfFrames : 4179\r\n\r\n