RealExGerlfriends.com Sammie Daniels – Heavenly Pussy

RealExGirlfriends.com Megan Rain – Brunette TeenJoyMii.com Lara – Getting Laid

Posted in Amateur, HD Porn, Sex Movies, Teen | 11443 Views |


Rate this girl !!!




cover\r\n\r\n1920x1080p / MP4 / 1.27 GB\r\n

[RealExGerlfriends.com] Sammie Daniels – Heavenly Pussy

\r\nSCREENSHOTS:\r\n\r\nscreens



DOWNLOAD

Keep2share.cc - Uploaded.net - Openload.co - Rapidu.net



http://ul.to/d681m811/r3g.s4mm13.d4n13ls.h34v3nly.pvssy.14.10.14.1080.mp4
http://played.to/z9kpua2jcpij



Premium here:
uploaded.net
keep2share.cc
rapidu.net.cc


Teens related to RealExGerlfriends.com Sammie Daniels – Heavenly Pussy


Hot hd teen sex videos 3748 ryushare uploaded keep2share

Hot hd teen sex videos 3748

Hot Teen Sex 225853 ryushare uploaded keep2share

Hot Teen Sex 225853

Teen Sex Movies 225608 ryushare uploaded keep2share

Teen Sex Movies 225608

Anabelle Pync – Anabelle’s sensual tease – 2014 ryushare uploaded keep2share

Anabelle Pync – Anabelle’s sensual tease – 2014

Young XXX Tube Videos 2002 ryushare uploaded keep2share

Young XXX Tube Videos 2002

Teen porn movies 225157 ryushare uploaded keep2share

Teen porn movies 225157

HD Sex World Videos High Definition Free Porn 1554 ryushare uploaded keep2share

HD Sex World Videos High Definition Free Porn 1554

Porn teen hd downloads 5256 ryushare uploaded keep2share

Porn teen hd downloads 5256

download hd romantic porn movie 226329 ryushare uploaded keep2share

download hd romantic porn movie 226329

apetubegirls ryushare uploaded keep2share

apetubegirls

xxx fuking feast times video hd dawunlod 226104 ryushare uploaded keep2share

xxx fuking feast times video hd dawunlod 226104

Katy Rose & Lutro – Lubricous ryushare uploaded keep2share

Katy Rose & Lutro – Lubricous

Dani Daniels HD Hot Teen ryushare uploaded keep2share

Dani Daniels HD Hot Teen

www hdworld xxx video com ryushare uploaded keep2share

www hdworld xxx video com

Pchd full fuckin video 226436 ryushare uploaded keep2share

Pchd full fuckin video 226436

Girls do porn downloads 3844 ryushare uploaded keep2share

Girls do porn downloads 3844

Pretty Little Treasure – BTS ryushare uploaded keep2share

Pretty Little Treasure – BTS

Jenny Glam – Who’s My Good Girl? ryushare uploaded keep2share

Jenny Glam – Who’s My Good Girl?

Hardcore Sex Hub 3916 ryushare uploaded keep2share

Hardcore Sex Hub 3916

Movies Young legal porn 5242 ryushare uploaded keep2share

Movies Young legal porn 5242

Check Out What Ive Learned ryushare uploaded keep2share

Check Out What Ive Learned

XXX young porn sex 3489 ryushare uploaded keep2share

XXX young porn sex 3489

Double Tease – All Sex ryushare uploaded keep2share

Double Tease – All Sex

Download young porn sex 224632 ryushare uploaded keep2share

Download young porn sex 224632

Tube Young Sex Amateur Orgy 4891 ryushare uploaded keep2share

Tube Young Sex Amateur Orgy 4891

Adult Hardcore XXX Sex Videos 3795 ryushare uploaded keep2share

Adult Hardcore XXX Sex Videos 3795

Chelsea – First & Forever ryushare uploaded keep2share

Chelsea – First & Forever

Ivana Sugar – Lovely arches ryushare uploaded keep2share

Ivana Sugar – Lovely arches

www hd brazzers sex in com 226593 ryushare uploaded keep2share

www hd brazzers sex in com 226593

Nice To Meet You ryushare uploaded keep2share

Nice To Meet You

HDX 18X xxx com 226775 ryushare uploaded keep2share

HDX 18X xxx com 226775

The best Teen sex 223940 ryushare uploaded keep2share

The best Teen sex 223940

FirstAnalQuest Carmen Fox ryushare uploaded keep2share

FirstAnalQuest Carmen Fox

[AbbyWinters.com] Sasha R. ryushare uploaded keep2share

[AbbyWinters.com] Sasha R.

Teen Sex Porn Videos Free Nude Teens 5623 ryushare uploaded keep2share

Teen Sex Porn Videos Free Nude Teens 5623

Report broken links / Post a comment

You must be logged in to post a comment.



[RealExGerlfriends.com] Sammie Daniels – Heavenly Pussy \r\n\r\nGeneral\r\nComplete name : J:HD Teens Movies Young Downloads Online Clips Scenes [RealExGerlfriends.com] Sammie Daniels – Heavenly Pussy.14.10.14.1080.mp4\r\nFormat : MPEG-4\r\nFormat profile : Base Media\r\nCodec ID : isom\r\nFile size : 1.27 GiB\r\nDuration : 21mn 24s\r\nOverall bit rate mode : Variable\r\nOverall bit rate : 8 486 Kbps\r\nWriting application : Lavf55.44.100\r\n\r\nVideo\r\nID : 1\r\nFormat : AVC\r\nFormat/Info : Advanced Video Codec\r\nFormat profile : [email protected]\r\nFormat settings, CABAC : No\r\nFormat settings, ReFrames : 2 frames\r\nCodec ID : avc1\r\nCodec ID/Info : Advanced Video Coding\r\nDuration : 21mn 24s\r\nBit rate : 8 385 Kbps\r\nWidth : 1 920 pixels\r\nHeight : 1 080 pixels\r\nDisplay aspect ratio : 16:9\r\nFrame rate mode : Constant\r\nFrame rate : 23.976 fps\r\nColor space : YUV\r\nChroma subsampling : 4:2:0\r\nBit depth : 8 bits\r\nScan type : Progressive\r\nBits/(Pixel*Frame) : 0.169\r\nStream size : 1.25 GiB (99%)\r\nWriting library : x264 core 142 r2431 a5831aa\r\nEncoding settings : cabac=0 / ref=2 / deblock=1:0:0 / analyse=0x1:0x111 / me=hex / subme=6 / psy=1 / psy_rd=1.00:0.00 / mixed_ref=1 / me_range=16 / chroma_me=1 / trellis=1 / 8x8dct=0 / cqm=0 / deadzone=21,11 / fast_pskip=1 / chroma_qp_offset=-2 / threads=1 / lookahead_threads=1 / sliced_threads=0 / nr=0 / decimate=1 / interlaced=0 / bluray_compat=0 / constrained_intra=0 / bframes=0 / weightp=0 / keyint=250 / keyint_min=23 / scenecut=40 / intra_refresh=0 / rc_lookahead=30 / rc=crf / mbtree=1 / crf=18.0 / qcomp=0.60 / qpmin=0 / qpmax=69 / qpstep=4 / ip_ratio=1.40 / aq=1:1.00\r\nLanguage : English\r\n\r\nAudio\r\nID : 2\r\nFormat : AAC\r\nFormat/Info : Advanced Audio Codec\r\nFormat profile : LC\r\nCodec ID : 40\r\nDuration : 21mn 24s\r\nBit rate mode : Variable\r\nBit rate : 96.0 Kbps\r\nMaximum bit rate : 128 Kbps\r\nChannel count : 2 channels\r\nChannel positions : Front: L R\r\nSampling rate : 48.0 KHz\r\nCompression mode : Lossy\r\nStream size : 14.7 MiB (1%)\r\nLanguage : English\r\n\r\n