Sandy Sweet – To Have And To Fuck

Hd young videos 4525Anal Awakening

Posted in Amateur, HD Porn, Sex Movies, Teen | 38051 Views |


Rate this girl !!!




 [NubileFilms.com] Sandy Sweet – To Have And To Fuck

\r\n

\r\n

cover

\r\n

1920x1080p / MP4 / 1.17 GB

\r\nSCREENSHOTS:\r\n

screens

\r\n\r\n



DOWNLOAD

Keep2share.cc - Uploaded.net - Openload.co - Rapidu.net


http://ul.to/b3usr8rz/nvb1l3f1lms_t0_h4v3_4nd_t0_fvck_1920.mp4
http://k2s.cc/file/dd7c60cbbef38/nvb1l3f1lms_t0_h4v3_4nd_t0_fvck_1920.mp4
http://fileom.com/lly4yix0kzqr/nvb1l3f1lms_t0_h4v3_4nd_t0_fvck_1920.mp4.html


Premium here:
uploaded.net
keep2share.cc
rapidu.net.cc


Teens related to Sandy Sweet – To Have And To Fuck


Teenage Fuck Clips 2806 ryushare uploaded keep2share

Teenage Fuck Clips 2806

Young Sex Movies 2030 ryushare uploaded keep2share

Young Sex Movies 2030

Anal with beautiful teen ryushare uploaded keep2share

Anal with beautiful teen

HD sex movies downloads 3688 ryushare uploaded keep2share

HD sex movies downloads 3688

Free Porn Videos Xxx Movies Pussy Porn 1549 ryushare uploaded keep2share

Free Porn Videos Xxx Movies Pussy Porn 1549

Maddy O’Reilly – Heat wave ryushare uploaded keep2share

Maddy O’Reilly – Heat wave

Teen 18 Porn XXX Clips Naked 2154 ryushare uploaded keep2share

Teen 18 Porn XXX Clips Naked 2154

Wow Porn Teen Movies HD ryushare uploaded keep2share

Wow Porn Teen Movies HD

Teen 18 Porn XXX Clips Naked 3113 ryushare uploaded keep2share

Teen 18 Porn XXX Clips Naked 3113

Small girls and boys porn 2683 ryushare uploaded keep2share

Small girls and boys porn 2683

Wow Porn Movies download) 225823 ryushare uploaded keep2share

Wow Porn Movies download) 225823

Young XXX Tube Videos 224995 ryushare uploaded keep2share

Young XXX Tube Videos 224995

Marina – YoungLibertines ryushare uploaded keep2share

Marina – YoungLibertines

Teen Sex Movies Young Porn Tube Vids 5068 ryushare uploaded keep2share

Teen Sex Movies Young Porn Tube Vids 5068

Two Teasing Tongues 10 – B ryushare uploaded keep2share

Two Teasing Tongues 10 – B

Teen porn movies 224851 ryushare uploaded keep2share

Teen porn movies 224851

Teen Sex Porn Videos Free Nude Teens 224616 ryushare uploaded keep2share

Teen Sex Porn Videos Free Nude Teens 224616

Sweet Teen Porn – Young Porn Videos 1653 ryushare uploaded keep2share

Sweet Teen Porn – Young Porn Videos 1653

Teen Sex Videos Tube Movies 225843 ryushare uploaded keep2share

Teen Sex Videos Tube Movies 225843

www hd teen girl sex videos com 226154 ryushare uploaded keep2share

www hd teen girl sex videos com 226154

Teen porn movies 225157 ryushare uploaded keep2share

Teen porn movies 225157

Alexis Brill – WUNF 101 ryushare uploaded keep2share

Alexis Brill – WUNF 101

Hot Teen Sex HD videos 224322 ryushare uploaded keep2share

Hot Teen Sex HD videos 224322

Hd quality – Teen sex video 5249 ryushare uploaded keep2share

Hd quality – Teen sex video 5249

Free Porn Videos Xxx Movies Pussy Porn 5324 ryushare uploaded keep2share

Free Porn Videos Xxx Movies Pussy Porn 5324

First time Sexual Films 18 sex xxx 225849 ryushare uploaded keep2share

First time Sexual Films 18 sex xxx 225849

HD Porn Teen Sex Videos 1629 ryushare uploaded keep2share

HD Porn Teen Sex Videos 1629

HD Porn Teen Sex Videos 4693 ryushare uploaded keep2share

HD Porn Teen Sex Videos 4693

Uploaded net porn XXX 5126 ryushare uploaded keep2share

Uploaded net porn XXX 5126

Maria Pie And Nomi – Melting Like Butter ryushare uploaded keep2share

Maria Pie And Nomi – Melting Like Butter

nude hot 226040 ryushare uploaded keep2share

nude hot 226040

Teen Sex Movies Young Porn Tube Vids 224457 ryushare uploaded keep2share

Teen Sex Movies Young Porn Tube Vids 224457

Sweet Teen Porn – Young Porn Videos 225330 ryushare uploaded keep2share

Sweet Teen Porn – Young Porn Videos 225330

www 8teenSex Hd com/Downlod 226520 ryushare uploaded keep2share

www 8teenSex Hd com/Downlod 226520

Fucking girl in stockings ryushare uploaded keep2share

Fucking girl in stockings

Report broken links / Post a comment

You must be logged in to post a comment.



General\r\nComplete name : D: [NubileFilms.com] Sandy Sweet – To Have And To Fuck.mp4\r\nFormat : MPEG-4\r\nFormat profile : Base Media\r\nCodec ID : isom\r\nFile size : 1.17 GiB\r\nDuration : 22mn 29s\r\nOverall bit rate mode : Variable\r\nOverall bit rate : 7 442 Kbps\r\nWriting application : Lavf55.16.102\r\n\r\nVideo\r\nID : 1\r\nFormat : AVC\r\nFormat/Info : Advanced Video Codec\r\nFormat profile : [email protected]\r\nFormat settings, CABAC : Yes\r\nFormat settings, ReFrames : 4 frames\r\nCodec ID : avc1\r\nCodec ID/Info : Advanced Video Coding\r\nDuration : 22mn 29s\r\nBit rate : 7 324 Kbps\r\nWidth : 1 920 pixels\r\nHeight : 1 080 pixels\r\nDisplay aspect ratio : 16:9\r\nFrame rate mode : Constant\r\nFrame rate : 23.976 fps\r\nColor space : YUV\r\nChroma subsampling : 4:2:0\r\nBit depth : 8 bits\r\nScan type : Progressive\r\nBits/(Pixel*Frame) : 0.147\r\nStream size : 1.15 GiB (98%)\r\nWriting library : x264 core 123 r2189 35cf912\r\nEncoding settings : cabac=1 / ref=2 / deblock=1:-1:-1 / analyse=0x1:0x111 / me=umh / subme=8 / psy=1 / psy_rd=1.00:0.15 / mixed_ref=1 / me_range=16 / chroma_me=1 / trellis=1 / 8x8dct=0 / cqm=0 / deadzone=21,11 / fast_pskip=1 / chroma_qp_offset=-3 / threads=10 / sliced_threads=0 / nr=0 / decimate=1 / interlaced=0 / bluray_compat=0 / constrained_intra=0 / bframes=3 / b_pyramid=2 / b_adapt=2 / b_bias=0 / direct=3 / weightb=1 / open_gop=0 / weightp=0 / keyint=250 / keyint_min=23 / scenecut=40 / intra_refresh=0 / rc_lookahead=50 / rc=crf / mbtree=1 / crf=18.0 / qcomp=0.60 / qpmin=0 / qpmax=69 / qpstep=4 / ip_ratio=1.40 / aq=1:1.00\r\nLanguage : English\r\n\r\nAudio\r\nID : 2\r\nFormat : AAC\r\nFormat/Info : Advanced Audio Codec\r\nFormat profile : LC\r\nCodec ID : 40\r\nDuration : 22mn 29s\r\nDuration_LastFrame : -4ms\r\nBit rate mode : Variable\r\nBit rate : 112 Kbps\r\nMaximum bit rate : 196 Kbps\r\nChannel(s) : 2 channels\r\nChannel positions : Front: L R\r\nSampling rate : 44.1 KHz\r\nCompression mode : Lossy\r\nStream size : 18.0 MiB (2%)\r\nLanguage : English\r\n\r\n