Sasha Foxxx (Edging 101 with Sasha Foxxx)

Jessica Rayne - Jerk Off Instruction - BlowjobSasha Foxxx (Edge Play with Sasha Foxxx)

Posted in HD Porn, Sex Movies, Teen | 16943 Views |


Rate this girl !!!




\r\n\r\n\r\n\r\nSasha Foxxx (Edging 101 with Sasha Foxxx)



DOWNLOAD

Keep2share.cc - Uploaded.net - Openload.co - Rapidu.net


http://fileom.com/t354lhm95vk6/S.a.sh.a_F.o.x.x.rar.html
http://k2s.cc/file/28adad2ef019b/S.a.sh.a_F.o.x.x.rar
http://ul.to/rnorka80/S.a.sh.a%20F.o.x.x.rar


Premium here:
uploaded.net
keep2share.cc
rapidu.net.cc


Teens related to Sasha Foxxx (Edging 101 with Sasha Foxxx)


HD Sex World Videos High Definition Free Porn 224629 ryushare uploaded keep2share

HD Sex World Videos High Definition Free Porn 224629

sex xxxfantasy hd download 226694 ryushare uploaded keep2share

sex xxxfantasy hd download 226694

High Definition Movies on HD 4166 ryushare uploaded keep2share

High Definition Movies on HD 4166

Teen porn movies 3457 ryushare uploaded keep2share

Teen porn movies 3457

Teen Porn XXX Tube 1144 ryushare uploaded keep2share

Teen Porn XXX Tube 1144

sxy ccc xx 226377 ryushare uploaded keep2share

sxy ccc xx 226377

Teen sex xxx hd 4873 ryushare uploaded keep2share

Teen sex xxx hd 4873

Teen Porn XXX Tube 224141 ryushare uploaded keep2share

Teen Porn XXX Tube 224141

18OnlyGirls – Natasha – 25 Clips Video Pack ryushare uploaded keep2share

18OnlyGirls – Natasha – 25 Clips Video Pack

www xxxsex vebios com ryushare uploaded keep2share

www xxxsex vebios com

xxxvedio HD 18 year download ryushare uploaded keep2share

xxxvedio HD 18 year download

Hot Teen Sex HD videos 1371 ryushare uploaded keep2share

Hot Teen Sex HD videos 1371

HQ Sex Movies Download 224208 ryushare uploaded keep2share

HQ Sex Movies Download 224208

Milagres – A Cool Tool For Me ryushare uploaded keep2share

Milagres – A Cool Tool For Me

HD Porn Video 3620 ryushare uploaded keep2share

HD Porn Video 3620

www hdxxx porn tube 226248 ryushare uploaded keep2share

www hdxxx porn tube 226248

High Definition Movies on HD 224619 ryushare uploaded keep2share

High Definition Movies on HD 224619

Teen Porn XXX Tube 4159 ryushare uploaded keep2share

Teen Porn XXX Tube 4159

Uploaded net porn 2517 ryushare uploaded keep2share

Uploaded net porn 2517

titshed net tube 226095 ryushare uploaded keep2share

titshed net tube 226095

Girls sex art hd teens videos 5470 ryushare uploaded keep2share

Girls sex art hd teens videos 5470

1By-Day.com Danika – Undercover Banana ryushare uploaded keep2share

1By-Day.com Danika – Undercover Banana

Young Virgin Pussy Teen Fuck Tube 3398 ryushare uploaded keep2share

Young Virgin Pussy Teen Fuck Tube 3398

Teen Sex Movies 223950 ryushare uploaded keep2share

Teen Sex Movies 223950

Teens 1080p hd porn 3561 ryushare uploaded keep2share

Teens 1080p hd porn 3561

www scool xxx com 226417 ryushare uploaded keep2share

www scool xxx com 226417

pc free porn hd ryushare uploaded keep2share

pc free porn hd

Ivana Sugar – Lovely arches ryushare uploaded keep2share

Ivana Sugar – Lovely arches

Hd young videos 3757 ryushare uploaded keep2share

Hd young videos 3757

www sex video pc porn 226242 ryushare uploaded keep2share

www sex video pc porn 226242

Hd young videos 2232 ryushare uploaded keep2share

Hd young videos 2232

8 Teen XXX – Teen Sex 4603 ryushare uploaded keep2share

8 Teen XXX – Teen Sex 4603

Sweet Teen Porn – Teena Dolly ryushare uploaded keep2share

Sweet Teen Porn – Teena Dolly

Porn HD Sex HD Teen Sex 224857 ryushare uploaded keep2share

Porn HD Sex HD Teen Sex 224857

descargar cindy_96 226727 ryushare uploaded keep2share

descargar cindy_96 226727

Report broken links / Post a comment

You must be logged in to post a comment.



General\r\nComplete name : D:HD TEENS CLIPS MOVIES FREE PORN DOWNLOADSSasha Foxxx (Edging 101 with Sasha Foxxx).mp4\r\nFormat : MPEG-4\r\nFormat profile : Base Media\r\nCodec ID : isom\r\nFile size : 398 MiB\r\nDuration : 20mn 38s\r\nOverall bit rate mode : Variable\r\nOverall bit rate : 2 695 Kbps\r\nEncoded date : UTC 1970-01-01 00:00:00\r\nTagged date : UTC 1970-01-01 00:00:00\r\nWriting application : Lavf52.93.0\r\n\r\nVideo\r\nID : 1\r\nFormat : MPEG-4 Visual\r\nFormat profile : [email protected]\r\nFormat settings, BVOP : No\r\nFormat settings, QPel : No\r\nFormat settings, GMC : No warppoints\r\nFormat settings, Matrix : Default (H.263)\r\nCodec ID : 20\r\nDuration : 20mn 38s\r\nDuration_LastFrame : -32ms\r\nBit rate : 2 563 Kbps\r\nWidth : 720 pixels\r\nHeight : 400 pixels\r\nDisplay aspect ratio : 16:9\r\nFrame rate mode : Constant\r\nFrame rate : 29.920 fps\r\nColor space : YUV\r\nChroma subsampling : 4:2:0\r\nBit depth : 8 bits\r\nScan type : Progressive\r\nCompression mode : Lossy\r\nBits/(Pixel*Frame) : 0.297\r\nStream size : 378 MiB (95%)\r\nWriting library : Lavc52.108.0\r\nEncoded date : UTC 1970-01-01 00:00:00\r\nTagged date : UTC 1970-01-01 00:00:00\r\n\r\nAudio\r\nID : 2\r\nFormat : AAC\r\nFormat/Info : Advanced Audio Codec\r\nFormat profile : LC\r\nCodec ID : 40\r\nDuration : 20mn 38s\r\nBit rate mode : Variable\r\nBit rate : 127 Kbps\r\nChannel(s) : 2 channels\r\nChannel positions : Front: L R\r\nSampling rate : 44.1 KHz\r\nCompression mode : Lossy\r\nStream size : 18.8 MiB (5%)\r\nEncoded date : UTC 1970-01-01 00:00:00\r\nTagged date : UTC 1970-01-01 00:00:00\r\n\r\n