Silvie Deluxe – Just A Minute

Alexis Brill – Waltz With Me – AutumnCecilia, Vanda – Everlasting Love

Posted in HD Porn, Pornstar, Sex Movies, Teen | 11653 Views |


Rate this girl !!!




cover\r\n\r\n1920x1080p / MP4 / 1.15 GB\r\n

[SexArt.com] Silvie Deluxe – Just A Minute

\r\nSCREENSHOTS:\r\n\r\nscreens



DOWNLOAD

Keep2share.cc - Uploaded.net - Openload.co - Rapidu.net


http://k2s.cc/file/acafed2e3ea72/s4rt.14.07.06.s1lv13.d3lux3.just.4.m1nut3.mp4
http://ul.to/39jqh2b8/s4rt.14.07.06.s1lv13.d3lux3.just.4.m1nut3.mp4



Premium here:
uploaded.net
keep2share.cc
rapidu.net.cc


Teens related to Silvie Deluxe – Just A Minute


Xxx 888 226518 ryushare uploaded keep2share

Xxx 888 226518

Teen Tits Tube, Young Girls Porn Videos 3672 ryushare uploaded keep2share

Teen Tits Tube, Young Girls Porn Videos 3672

MyDirtySecret – All Sex, Amateur, Creampie, 720p ryushare uploaded keep2share

MyDirtySecret – All Sex, Amateur, Creampie, 720p

High Definition Movies on HD 225518 ryushare uploaded keep2share

High Definition Movies on HD 225518

Vintage Collection – The Photographer ryushare uploaded keep2share

Vintage Collection – The Photographer

Nude Teens fucking hard 1617 ryushare uploaded keep2share

Nude Teens fucking hard 1617

xvideos porn hd videos 226278 ryushare uploaded keep2share

xvideos porn hd videos 226278

Watch Teen Sex Videos HD 1216 ryushare uploaded keep2share

Watch Teen Sex Videos HD 1216

HD Porn Videos 225354 ryushare uploaded keep2share

HD Porn Videos 225354

Wow Porn Movies download) 225133 ryushare uploaded keep2share

Wow Porn Movies download) 225133

Wow Girls Porn Clips download 224666 ryushare uploaded keep2share

Wow Girls Porn Clips download 224666

Beata – Sharing A Nymph ryushare uploaded keep2share

Beata – Sharing A Nymph

Teen Sex Videos Tube Movies 1759 ryushare uploaded keep2share

Teen Sex Videos Tube Movies 1759

1By-Day.com / DDFNetwork.com] Valentina Ricci – Sudsy Snatch – Belgian Beauty Masturbates in the Tub (01.12.2016 г.) [Bath, Bathroom, Brunette, Enhanced Tits, Fingering, High Heels, Lingerie, Piercing, Trimmed Pussy, Solo, Medium Tits, 1080p] ryushare uploaded keep2share

1By-Day.com / DDFNetwork.com] Valentina Ricci – Sudsy Snatch – Belgian Beauty Masturbates in the Tub (01.12.2016 г.) [Bath, Bathroom, Brunette, Enhanced Tits, Fingering, High Heels, Lingerie, Piercing, Trimmed Pussy, Solo, Medium Tits, 1080p]

Teen 18 Porn XXX Clips Naked 3189 ryushare uploaded keep2share

Teen 18 Porn XXX Clips Naked 3189

I Love Young Girls 3 ryushare uploaded keep2share

I Love Young Girls 3

www xxx sex naughty america com hd downlod ryushare uploaded keep2share

www xxx sex naughty america com hd downlod

Teenies Videos – Teen Porn, Teen Sex, XXX Free Videos 224066 ryushare uploaded keep2share

Teenies Videos – Teen Porn, Teen Sex, XXX Free Videos 224066

avi full hd porn 226178 ryushare uploaded keep2share

avi full hd porn 226178

Teen Sex Movies Young Porn Tube Vids 225825 ryushare uploaded keep2share

Teen Sex Movies Young Porn Tube Vids 225825

HD Porn Videos 1376 ryushare uploaded keep2share

HD Porn Videos 1376

Nude Teens fucking hard 5025 ryushare uploaded keep2share

Nude Teens fucking hard 5025

The best Teen sex 225598 ryushare uploaded keep2share

The best Teen sex 225598

sax yas xxx ryushare uploaded keep2share

sax yas xxx

New sexy video pc hd ryushare uploaded keep2share

New sexy video pc hd

8 Teen XXX – Teen Sex 224358 ryushare uploaded keep2share

8 Teen XXX – Teen Sex 224358

Hot Teen Sex 4324 ryushare uploaded keep2share

Hot Teen Sex 4324

Good Teen Tube Sexy Young Naked Girls Movies 225959 ryushare uploaded keep2share

Good Teen Tube Sexy Young Naked Girls Movies 225959

HD Porn Teen Sex Videos 2786 ryushare uploaded keep2share

HD Porn Teen Sex Videos 2786

Porn HD Sex HD Teen Sex 225023 ryushare uploaded keep2share

Porn HD Sex HD Teen Sex 225023

HD Sex 18- YEX XXX ryushare uploaded keep2share

HD Sex 18- YEX XXX

Hardcore Sex Hub 223889 ryushare uploaded keep2share

Hardcore Sex Hub 223889

Teen porn movies 225402 ryushare uploaded keep2share

Teen porn movies 225402

Hd young videos 3757 ryushare uploaded keep2share

Hd young videos 3757

Teen Sex Videos Tube Movies 4086 ryushare uploaded keep2share

Teen Sex Videos Tube Movies 4086

Report broken links / Post a comment

You must be logged in to post a comment.



[SexArt.com] Silvie Deluxe – Just A Minute \r\nGeneral\r\nComplete name : D: [SexArt.com] Silvie Deluxe – Just A Minute.mp4\r\nFormat : MPEG-4\r\nFormat profile : Base Media\r\nCodec ID : isom\r\nFile size : 1.15 GiB\r\nDuration : 20mn 21s\r\nOverall bit rate : 8 121 Kbps\r\nMovie name : Downloaded from RARBG.COM\r\nWriting application : Lavf55.37.102\r\nComment : Downloaded from RARBG.COM\r\n\r\nVideo\r\nID : 1\r\nFormat : AVC\r\nFormat/Info : Advanced Video Codec\r\nFormat profile : [email protected]\r\nFormat settings, CABAC : Yes\r\nFormat settings, ReFrames : 5 frames\r\nCodec ID : avc1\r\nCodec ID/Info : Advanced Video Coding\r\nDuration : 20mn 20s\r\nBit rate : 8 000 Kbps\r\nWidth : 1 920 pixels\r\nHeight : 1 080 pixels\r\nDisplay aspect ratio : 16:9\r\nFrame rate mode : Constant\r\nFrame rate : 25.000 fps\r\nColor space : YUV\r\nChroma subsampling : 4:2:0\r\nBit depth : 8 bits\r\nScan type : Progressive\r\nBits/(Pixel*Frame) : 0.154\r\nStream size : 1.14 GiB (98%)\r\nWriting library : x264 core 129 r2245 bc13772\r\nEncoding settings : cabac=1 / ref=5 / deblock=1:0:0 / analyse=0x3:0x113 / me=umh / subme=8 / psy=0 / mixed_ref=1 / me_range=16 / chroma_me=1 / trellis=1 / 8x8dct=1 / cqm=0 / deadzone=21,11 / fast_pskip=1 / chroma_qp_offset=0 / threads=36 / lookahead_threads=6 / sliced_threads=0 / nr=0 / decimate=1 / interlaced=0 / bluray_compat=0 / constrained_intra=0 / bframes=3 / b_pyramid=2 / b_adapt=2 / b_bias=0 / direct=3 / weightb=1 / open_gop=0 / weightp=2 / keyint=250 / keyint_min=25 / scenecut=40 / intra_refresh=0 / rc=2pass / mbtree=0 / bitrate=8000 / ratetol=1.0 / qcomp=0.60 / qpmin=10 / qpmax=51 / qpstep=4 / cplxblur=20.0 / qblur=0.5 / ip_ratio=1.40 / pb_ratio=1.30 / aq=1:1.00\r\nLanguage : English\r\n\r\nAudio\r\nID : 2\r\nFormat : AAC\r\nFormat/Info : Advanced Audio Codec\r\nFormat profile : LC\r\nCodec ID : 40\r\nDuration : 20mn 21s\r\nBit rate mode : Constant\r\nBit rate : 120 Kbps\r\nChannel(s) : 2 channels\r\nChannel positions : Front: L R\r\nSampling rate : 44.1 KHz\r\nCompression mode : Lossy\r\nStream size : 17.5 MiB (1%)\r\nLanguage : English\r\n\r\n