Small girl having hot group sex

Nubiles - sexual intercourseSex in the morning

Posted in Amateur, HD Porn, Sex Movies, Teen, Threesome | 18205 Views |


Rate this girl !!!




Small girl having hot group sex\r\n\r\n\r\n\r\n\r\nhttp://img101.imagetwist.com/i/05130/ju5e5yvfxjt7.jpeg\r\n\r\nLink(512 Mb||13:09||1920*1080||MP4) \r\n\r\n 



DOWNLOAD

Keep2share.cc - Uploaded.net - Openload.co - Rapidu.net


http://keep2share.cc/file/52dda43110e97
http://ul.to/y7qyica1
http://ryushare.com/198e8a8610b1/BNGCBby.rar


Premium here:
uploaded.net
keep2share.cc
rapidu.net.cc

Teens related to Small girl having hot group sex


Tube xxx 5228 ryushare uploaded keep2share

Tube xxx 5228

Young 720p hd porn 3975 ryushare uploaded keep2share

Young 720p hd porn 3975

Hd young videos 4525 ryushare uploaded keep2share

Hd young videos 4525

Babes.com Linda Sweet, Susan Ayn, Victoria Daniels ryushare uploaded keep2share

Babes.com Linda Sweet, Susan Ayn, Victoria Daniels

Teen Sex Videos Tube Movies 3048 ryushare uploaded keep2share

Teen Sex Videos Tube Movies 3048

Adele Sunshine – George on Adele ryushare uploaded keep2share

Adele Sunshine – George on Adele

Ivy & Uma Zen – Two Girls ryushare uploaded keep2share

Ivy & Uma Zen – Two Girls

Hot Teen Sex 224463 ryushare uploaded keep2share

Hot Teen Sex 224463

Free High Quality Sex Movies 5482 ryushare uploaded keep2share

Free High Quality Sex Movies 5482

sex videos 18 226639 ryushare uploaded keep2share

sex videos 18 226639

Download young porn sex 5145 ryushare uploaded keep2share

Download young porn sex 5145

low quality of sex video 226074 ryushare uploaded keep2share

low quality of sex video 226074

edge orgasm ryushare uploaded keep2share

edge orgasm

yunga grls porn sex com ryushare uploaded keep2share

yunga grls porn sex com

The best Teen sex 4606 ryushare uploaded keep2share

The best Teen sex 4606

film sexxxx2014 ryushare uploaded keep2share

film sexxxx2014

Girls sex art hd teens videos 225284 ryushare uploaded keep2share

Girls sex art hd teens videos 225284

Hardcore sex videos in the high definition quality 224598 ryushare uploaded keep2share

Hardcore sex videos in the high definition quality 224598

Watch Teen Sex Videos HD 1226 ryushare uploaded keep2share

Watch Teen Sex Videos HD 1226

Hot Teen Sex HD videos 225252 ryushare uploaded keep2share

Hot Teen Sex HD videos 225252

Norma – Welcome to fuck her for cash ryushare uploaded keep2share

Norma – Welcome to fuck her for cash

The best Teen sex 225173 ryushare uploaded keep2share

The best Teen sex 225173

Viola Paige (Toying Around / 10.12.13) Nubiles.net ryushare uploaded keep2share

Viola Paige (Toying Around / 10.12.13) Nubiles.net

Teen porn movies 2556 ryushare uploaded keep2share

Teen porn movies 2556

Nude Teens fucking hard 5025 ryushare uploaded keep2share

Nude Teens fucking hard 5025

Sandy K – first hardcore !!! ryushare uploaded keep2share

Sandy K – first hardcore !!!

HQ Sex Movies Download 1982 ryushare uploaded keep2share

HQ Sex Movies Download 1982

Sweet Teen Porn – Young Porn Videos 224592 ryushare uploaded keep2share

Sweet Teen Porn – Young Porn Videos 224592

Kathia Nobili, Meg Magic – Low Self-Esteem ryushare uploaded keep2share

Kathia Nobili, Meg Magic – Low Self-Esteem

HD Teen Sex Tube 4271 ryushare uploaded keep2share

HD Teen Sex Tube 4271

Nude Teens fucking hard 224900 ryushare uploaded keep2share

Nude Teens fucking hard 224900

Adult Hardcore XXX Sex Videos 225378 ryushare uploaded keep2share

Adult Hardcore XXX Sex Videos 225378

Teen Sex Videos Tube Movies 225847 ryushare uploaded keep2share

Teen Sex Videos Tube Movies 225847

Good Teen Tube Sexy Young Naked Girls Movies 2157 ryushare uploaded keep2share

Good Teen Tube Sexy Young Naked Girls Movies 2157

Hardcore sex videos in the high definition quality 1804 ryushare uploaded keep2share

Hardcore sex videos in the high definition quality 1804

Report broken links / Post a comment

You must be logged in to post a comment.



General\r\nComplete name : D:Small girl having hot group sexBNGCBbyBNGCBby.mp4\r\nFormat : MPEG-4\r\nFormat profile : Base Media\r\nCodec ID : isom\r\nFile size : 512 MiB\r\nDuration : 13mn 9s\r\nOverall bit rate mode : Variable\r\nOverall bit rate : 5 445 Kbps\r\nWriting application : Lavf52.64.2\r\n\r\nVideo\r\nID : 1\r\nFormat : AVC\r\nFormat/Info : Advanced Video Codec\r\nFormat profile : [email protected]\r\nFormat settings, CABAC : Yes\r\nFormat settings, ReFrames : 2 frames\r\nCodec ID : avc1\r\nCodec ID/Info : Advanced Video Coding\r\nDuration : 13mn 9s\r\nBit rate : 5 335 Kbps\r\nWidth : 1 920 pixels\r\nHeight : 1 080 pixels\r\nDisplay aspect ratio : 16:9\r\nFrame rate mode : Constant\r\nFrame rate : 29.970 fps\r\nColor space : YUV\r\nChroma subsampling : 4:2:0\r\nBit depth : 8 bits\r\nScan type : Progressive\r\nBits/(Pixel*Frame) : 0.086\r\nStream size : 502 MiB (98%)\r\nWriting library : x264 core 107\r\nEncoding settings : cabac=1 / ref=2 / deblock=1:0:0 / analyse=0x3:0x113 / me=hex / subme=6 / psy=1 / psy_rd=1.00:0.00 / mixed_ref=0 / me_range=16 / chroma_me=1 / trellis=0 / 8x8dct=1 / cqm=0 / deadzone=21,11 / fast_pskip=1 / chroma_qp_offset=-2 / threads=24 / sliced_threads=0 / nr=0 / decimate=1 / interlaced=0 / constrained_intra=0 / bframes=3 / b_pyramid=0 / b_adapt=1 / b_bias=0 / direct=3 / weightb=1 / open_gop=0 / weightp=2 / keyint=250 / keyint_min=25 / scenecut=40 / intra_refresh=0 / rc_lookahead=40 / rc=crf / mbtree=1 / crf=20.0 / qcomp=0.60 / qpmin=10 / qpmax=51 / qpstep=4 / ip_ratio=1.41 / aq=1:1.00\r\n\r\nAudio\r\nID : 2\r\nFormat : AAC\r\nFormat/Info : Advanced Audio Codec\r\nFormat profile : LC\r\nCodec ID : 40\r\nDuration : 13mn 9s\r\nBit rate mode : Variable\r\nBit rate : 106 Kbps\r\nChannel(s) : 2 channels\r\nChannel positions : Front: L R\r\nSampling rate : 44.1 KHz\r\nCompression mode : Lossy\r\nStream size : 9.94 MiB (2%)\r\n\r\n