Summer Breeze and Victoria Tiffani

Linda S – Making Up For Lost TimeJassie Gold - Take Your Tisme / all sex

Posted in HD Porn, Sex Movies, Teen, Threesome | 12363 Views |


Rate this girl !!!




vlcsnap-2014-02-18-01h29m06s87\r\n\r\nvlcsnap-2014-02-18-01h30m36s83\r\n\r\nvlcsnap-2014-02-18-01h30m49s213Summer Breeze and Victoria Tiffani\r\n\r\nFormat: AVI\r\nDuration: 00:27:17\r\nAudio: MPEG Audio Layer 3 44100Hz stereo 64kbps\r\nVideo: Xvid 800×450 29.00fps 2402 Kbps\r\n\r\n 



DOWNLOAD

Keep2share.cc - Uploaded.net - Openload.co - Rapidu.net


http://fileom.com/4ysdr6ipi6ki/Summer_Breeze_and_Victoria_Tiffani.avi.html
http://k2s.cc/file/e5e6db2bcddb0/Summer_Breeze_and_Victoria_Tiffani.avi
http://ul.to/329soyla/Svmm3r.Br33ze..rar



Premium here:
uploaded.net
keep2share.cc
rapidu.net.cc

Teens related to Summer Breeze and Victoria Tiffani


www hdworld xxx video com ryushare uploaded keep2share

www hdworld xxx video com

Adult Hardcore XXX Sex Videos 225378 ryushare uploaded keep2share

Adult Hardcore XXX Sex Videos 225378

WowGirls.com Nomi, Virginie – Madly In Love ryushare uploaded keep2share

WowGirls.com Nomi, Virginie – Madly In Love

xxx photos HD MP4/ ryushare uploaded keep2share

xxx photos HD MP4/

HD Teen Sex Tube 224188 ryushare uploaded keep2share

HD Teen Sex Tube 224188

Chinara, Peachy – Cum And Be Happy ryushare uploaded keep2share

Chinara, Peachy – Cum And Be Happy

Hd young videos 4525 ryushare uploaded keep2share

Hd young videos 4525

X-art Scarlet Jayden Blindfold me part2 ryushare uploaded keep2share

X-art Scarlet Jayden Blindfold me part2

8 Teen XXX – Teen Sex 3479 ryushare uploaded keep2share

8 Teen XXX – Teen Sex 3479

High Definition Movies on HD 3938 ryushare uploaded keep2share

High Definition Movies on HD 3938

Argentina and Anfisa ryushare uploaded keep2share

Argentina and Anfisa

Jenna Sativa Rebecca-Volpetti-GANGBANG ryushare uploaded keep2share

Jenna Sativa Rebecca-Volpetti-GANGBANG

www pussyHD picture ryushare uploaded keep2share

www pussyHD picture

download 720p short video clips asiancandyshop com 226341 ryushare uploaded keep2share

download 720p short video clips asiancandyshop com 226341

yang garl sex movi 226280 ryushare uploaded keep2share

yang garl sex movi 226280

xxx video hd romantik downlod ryushare uploaded keep2share

xxx video hd romantik downlod

Beautifull 18 years girl amateur 4791 ryushare uploaded keep2share

Beautifull 18 years girl amateur 4791

Fucking a RedHair Sexy teen amateur ryushare uploaded keep2share

Fucking a RedHair Sexy teen amateur

Pornstar teen fucked in all holes ryushare uploaded keep2share

Pornstar teen fucked in all holes

sex wwwxxx xcxx ryushare uploaded keep2share

sex wwwxxx xcxx

Teen 18 Porn XXX Clips Naked 224373 ryushare uploaded keep2share

Teen 18 Porn XXX Clips Naked 224373

HD Teens Sex Tube Videos XxX 224767 ryushare uploaded keep2share

HD Teens Sex Tube Videos XxX 224767

Beautiful brunette teen fucking from behind Hd ryushare uploaded keep2share

Beautiful brunette teen fucking from behind Hd

Wow porn hd downloads 224563 ryushare uploaded keep2share

Wow porn hd downloads 224563

Young XXX Tube Videos 3931 ryushare uploaded keep2share

Young XXX Tube Videos 3931

Julie Vee – Hardcore ryushare uploaded keep2share

Julie Vee – Hardcore

Teen porn movies 225211 ryushare uploaded keep2share

Teen porn movies 225211

Teens in Porno young porn videos and free teen sex 225010 ryushare uploaded keep2share

Teens in Porno young porn videos and free teen sex 225010

teenporno mp4 ryushare uploaded keep2share

teenporno mp4

Wow porn hd downloads 224185 ryushare uploaded keep2share

Wow porn hd downloads 224185

wwwten sex hd com 226451 ryushare uploaded keep2share

wwwten sex hd com 226451

HD Teen Sex Tube 2585 ryushare uploaded keep2share

HD Teen Sex Tube 2585

Wow porn tube movies 225566 ryushare uploaded keep2share

Wow porn tube movies 225566

HD Teen Sex Tube 1160 ryushare uploaded keep2share

HD Teen Sex Tube 1160

Hd quality – Teen sex video 224703 ryushare uploaded keep2share

Hd quality – Teen sex video 224703

Report broken links / Post a comment

You must be logged in to post a comment.



General\r\nComplete name : D:Summer Breeze and Victoria Tiffani.avi\r\nFormat : AVI\r\nFormat/Info : Audio Video Interleave\r\nFile size : 484 MiB\r\nDuration : 27mn 17s\r\nOverall bit rate : 2 479 Kbps\r\nWriting application : Lavf52.0.0\r\n\r\nVideo\r\nID : 0\r\nFormat : xvid\r\nCodec ID : xvid\r\nDuration : 27mn 17s\r\nBit rate : 2 402 Kbps\r\nWidth : 800 pixels\r\nHeight : 450 pixels\r\nDisplay aspect ratio : 16:9\r\nFrame rate : 29.000 fps\r\nBits/(Pixel*Frame) : 0.230\r\nStream size : 469 MiB (97%)\r\n\r\nAudio\r\nID : 1\r\nFormat : MPEG Audio\r\nFormat version : Version 1\r\nFormat profile : Layer 3\r\nMode : Joint stereo\r\nMode extension : MS Stereo\r\nCodec ID : 55\r\nCodec ID/Hint : MP3\r\nDuration : 27mn 17s\r\nBit rate mode : Constant\r\nBit rate : 64.0 Kbps\r\nChannel(s) : 2 channels\r\nSampling rate : 44.1 KHz\r\nCompression mode : Lossy\r\nStream size : 12.5 MiB (3%)\r\nAlignment : Aligned on interleaves\r\nInterleave, duration : 26 ms (0.76 video frame)\r\n\r\n