Susan Ayn

Lola Taylor & Franck Franco – Saturday NightNaomi Nevena

Posted in Amateur, HD Porn, Sex Movies, Teen, Threesome | 8108 Views |


Rate this girl !!!




cover

\r\n

1920x1080p / MP4 / 1.15 GB

\r\n\r\n

[X-Angels.com] Susan Ayn

\r\n \r\n

SCREENSHOTS:

\r\n

screens

\r\n



DOWNLOAD

Keep2share.cc - Uploaded.net - Openload.co - Rapidu.net


http://k2s.cc/file/04b7189b9cfbb/Svs4n.4yn.X4.mp4

http://ul.to/xey3qrsx/Svs4n.4yn.X4.mp4


Premium here:
uploaded.net
keep2share.cc
rapidu.net.cc


Teens related to Susan Ayn


hd porn new breast 226190 ryushare uploaded keep2share

hd porn new breast 226190

Www teen77 com free dawonlorld ryushare uploaded keep2share

Www teen77 com free dawonlorld

Wow porn hd downloads 224274 ryushare uploaded keep2share

Wow porn hd downloads 224274

Teen Sex Porn Videos Free Nude Teens 4441 ryushare uploaded keep2share

Teen Sex Porn Videos Free Nude Teens 4441

21Naturals Sweet Cat ryushare uploaded keep2share

21Naturals Sweet Cat

HD Porn Teen Sex Videos 4268 ryushare uploaded keep2share

HD Porn Teen Sex Videos 4268

Porno movies young teens lesbian 5245 ryushare uploaded keep2share

Porno movies young teens lesbian 5245

Wow Porn Movies download) 225823 ryushare uploaded keep2share

Wow Porn Movies download) 225823

Watch Teen Sex Videos HD 225256 ryushare uploaded keep2share

Watch Teen Sex Videos HD 225256

www english xxx videos hd com 226742 ryushare uploaded keep2share

www english xxx videos hd com 226742

Hardcore sex videos in the high definition quality 5087 ryushare uploaded keep2share

Hardcore sex videos in the high definition quality 5087

Teen Sex Movies 3831 ryushare uploaded keep2share

Teen Sex Movies 3831

noveteens girls models clips 226158 ryushare uploaded keep2share

noveteens girls models clips 226158

www littile pussy hdmp4 com 226115 ryushare uploaded keep2share

www littile pussy hdmp4 com 226115

8 Teen XXX – Teen Sex 2973 ryushare uploaded keep2share

8 Teen XXX – Teen Sex 2973

Eva Rides on Top on a Nice Thick Cock ryushare uploaded keep2share

Eva Rides on Top on a Nice Thick Cock

Teen Sex Movies Young Porn Tube Vids 223934 ryushare uploaded keep2share

Teen Sex Movies Young Porn Tube Vids 223934

http is gd real xgrls hot video 226544 ryushare uploaded keep2share

http is gd real xgrls hot video 226544

Fucking outdoors ryushare uploaded keep2share

Fucking outdoors

Аvа Spаrххх & Veronica Radke – Working The Earth ryushare uploaded keep2share

Аvа Spаrххх & Veronica Radke – Working The Earth

18 years girl xxx sex videos) 4656 ryushare uploaded keep2share

18 years girl xxx sex videos) 4656

www full sex xxx move com ryushare uploaded keep2share

www full sex xxx move com

Beata Fucking in swimming pool ryushare uploaded keep2share

Beata Fucking in swimming pool

Teen 18 Porn XXX Clips Naked 3589 ryushare uploaded keep2share

Teen 18 Porn XXX Clips Naked 3589

Girls sex art hd teens videos 224203 ryushare uploaded keep2share

Girls sex art hd teens videos 224203

Rosaline Rosa & Vanda Lust – On The Sly ryushare uploaded keep2share

Rosaline Rosa & Vanda Lust – On The Sly

hd xxx sex muvi com ryushare uploaded keep2share

hd xxx sex muvi com

Free Young Porn Videos XXX Teen Porn 4185 ryushare uploaded keep2share

Free Young Porn Videos XXX Teen Porn 4185

Porn teen hd downloads 5256 ryushare uploaded keep2share

Porn teen hd downloads 5256

Maria Pie And Nomi – Melting Like Butter ryushare uploaded keep2share

Maria Pie And Nomi – Melting Like Butter

HD Teens Sex Tube Videos XxX 5719 ryushare uploaded keep2share

HD Teens Sex Tube Videos XxX 5719

J. Joanna (Shoot It For Me / 15.12.13) ryushare uploaded keep2share

J. Joanna (Shoot It For Me / 15.12.13)

Kiara Lord – Rock my world ryushare uploaded keep2share

Kiara Lord – Rock my world

Beautiful small tits ryushare uploaded keep2share

Beautiful small tits

www xxxsexncon ryushare uploaded keep2share

www xxxsexncon

Report broken links / Post a comment

You must be logged in to post a comment.



General\r\nComplete name : D: [X-Angels.com] Susan Ayn .Porn sex hd download XXX.mp4\r\nFormat : MPEG-4\r\nFormat profile : Base Media\r\nCodec ID : isom\r\nFile size : 1.15 GiB\r\nDuration : 20mn 20s\r\nOverall bit rate : 8 083 Kbps\r\nMovie name : RARBG.COM - X-Angels.14.09.09.Susan.Ayn.XXX.1080p.MP4-KTR\r\nPerformer : Royal-Cash.com\r\nComposer : Royal-Cash.com\r\nWriting application : Lavf55.48.100\r\nCopyright : Royal-Cash.com\r\nComment : RARBG.COM - X-Angels.14.09.09.Susan.Ayn.XXX.1080p.MP4-KTR\r\n\r\nVideo\r\nID : 1\r\nFormat : AVC\r\nFormat/Info : Advanced Video Codec\r\nFormat profile : [email protected]\r\nFormat settings, CABAC : Yes\r\nFormat settings, ReFrames : 3 frames\r\nFormat settings, GOP : M=1, N=100\r\nCodec ID : avc1\r\nCodec ID/Info : Advanced Video Coding\r\nDuration : 20mn 20s\r\nBit rate : 8 000 Kbps\r\nWidth : 1 920 pixels\r\nHeight : 1 080 pixels\r\nDisplay aspect ratio : 16:9\r\nFrame rate mode : Constant\r\nFrame rate : 25.000 fps\r\nColor space : YUV\r\nChroma subsampling : 4:2:0\r\nBit depth : 8 bits\r\nScan type : Progressive\r\nBits/(Pixel*Frame) : 0.154\r\nStream size : 1.13 GiB (99%)\r\nWriting library : x264 core 1191.0\r\nEncoding settings : cabac=1 / ref=3 / deblock=1:0:0 / analyse=0x3:0x113 / me=hex / subme=7 / psy=1 / psy_rd=1.00:0.00 / mixed_ref=1 / me_range=16 / chroma_me=1 / trellis=1 / 8x8dct=1 / cqm=0 / deadzone=21,11 / fast_pskip=1 / chroma_qp_offset=-2 / threads=24 / sliced_threads=0 / nr=0 / decimate=1 / interlaced=0 / bluray_compat=0 / constrained_intra=0 / bframes=0 / weightp=2 / keyint=100 / keyint_min=10 / scenecut=40 / intra_refresh=0 / rc_lookahead=40 / rc=abr / mbtree=1 / bitrate=8000 / ratetol=1.0 / qcomp=0.60 / qpmin=0 / qpmax=69 / qpstep=4 / ip_ratio=1.40 / aq=1:1.00\r\n\r\nAudio\r\nID : 2\r\nFormat : AAC\r\nFormat/Info : Advanced Audio Codec\r\nFormat profile : LC\r\nCodec ID : 40\r\nDuration : 20mn 20s\r\nBit rate mode : Constant\r\nBit rate : 114 Kbps\r\nChannel(s) : 2 channels\r\nChannel positions : Front: L R\r\nSampling rate : 44.1 KHz\r\nCompression mode : Lossy\r\nStream size : 16.6 MiB (1%)\r\n\r\n