Sweet Teen Porn – Young Porn Videos 1653

Young Virgin Pussy Teen Fuck Tube 1659High Definition Movies on HD 1647

Posted in Amateur, HD Porn, Sex Movies, Teen | 9313 Views |


Rate this girl !!!




\r\n\r\n\r\n\r\n\r\nhttp://img102.imagetwist.com/i/05253/3escv0p0smu7.jpg\r\n\r\n Link(889 Mb||39:57||1280*720||MP4)



DOWNLOAD

Keep2share.cc - Uploaded.net - Openload.co - Rapidu.net


http://keep2share.cc/file/e4a14cd1d95d3
http://ryushare.com/yx7q8637kkve/TRNSGRts.rar
http://ul.to/h0wyhsxh


Premium here:
uploaded.net
keep2share.cc
rapidu.net.cc

Teens related to Sweet Teen Porn – Young Porn Videos 1653


Teens sex mania 223786 ryushare uploaded keep2share

Teens sex mania 223786

First time Sexual Films 18 sex xxx 1576 ryushare uploaded keep2share

First time Sexual Films 18 sex xxx 1576

Hot brunette – blowjob and fucked ryushare uploaded keep2share

Hot brunette – blowjob and fucked

K Craving Lips 4 – CLIP B ryushare uploaded keep2share

K Craving Lips 4 – CLIP B

Hot download sex girls movies 225718 ryushare uploaded keep2share

Hot download sex girls movies 225718

Girls sex art hd teens videos 225284 ryushare uploaded keep2share

Girls sex art hd teens videos 225284

Teens sex mania 223990 ryushare uploaded keep2share

Teens sex mania 223990

Young Virgin Pussy Teen Fuck Tube 4173 ryushare uploaded keep2share

Young Virgin Pussy Teen Fuck Tube 4173

College Teen Sex 2344 ryushare uploaded keep2share

College Teen Sex 2344

Lola Taylor & Franck Franco – Saturday Night ryushare uploaded keep2share

Lola Taylor & Franck Franco – Saturday Night

Cecilia, Vanda – Everlasting Love ryushare uploaded keep2share

Cecilia, Vanda – Everlasting Love

Hd quality – Teen sex video 3683 ryushare uploaded keep2share

Hd quality – Teen sex video 3683

non HD xxx movie ryushare uploaded keep2share

non HD xxx movie

Aiko Mai, Angellina – Sweet Like Candy ryushare uploaded keep2share

Aiko Mai, Angellina – Sweet Like Candy

Hot hd teen sex videos 4751 ryushare uploaded keep2share

Hot hd teen sex videos 4751

Teen porn xxx 223828 ryushare uploaded keep2share

Teen porn xxx 223828

Jenny Glam – Who’s My Good Girl? ryushare uploaded keep2share

Jenny Glam – Who’s My Good Girl?

Fucking in the shower with young blonde ryushare uploaded keep2share

Fucking in the shower with young blonde

full hd hardcor shortsex clips ryushare uploaded keep2share

full hd hardcor shortsex clips

[WowPorn.com] Feona – Humans Needs. R E D ryushare uploaded keep2share

[WowPorn.com] Feona – Humans Needs. R E D

Teenage Fuck Clips 1939 ryushare uploaded keep2share

Teenage Fuck Clips 1939

Download young porn sex 5145 ryushare uploaded keep2share

Download young porn sex 5145

Eva, Alberta, Niona, Nora – Sex party ryushare uploaded keep2share

Eva, Alberta, Niona, Nora – Sex party

World Boyfriends Xxx Videos full HD ryushare uploaded keep2share

World Boyfriends Xxx Videos full HD

Yours Forever – Lisa ryushare uploaded keep2share

Yours Forever – Lisa

Petite Teeny Who Loves Cock ryushare uploaded keep2share

Petite Teeny Who Loves Cock

Young XXX Tube Videos 4107 ryushare uploaded keep2share

Young XXX Tube Videos 4107

High Definition Movies on HD Teen Porn XXX Tube 1692 ryushare uploaded keep2share

High Definition Movies on HD Teen Porn XXX Tube 1692

Hd young videos 3698 ryushare uploaded keep2share

Hd young videos 3698

Adult Hardcore XXX Sex Videos 1879 ryushare uploaded keep2share

Adult Hardcore XXX Sex Videos 1879

Teenies Videos – Teen Porn, Teen Sex, XXX Free Videos 224604 ryushare uploaded keep2share

Teenies Videos – Teen Porn, Teen Sex, XXX Free Videos 224604

[WakeUpNFuck.com / PierreWoodman.com] Vyvan Hill (WUNF 202) [2016 г., Anal, DP, DPP, Gangbang, Foursome MMMF, Swallow, 720p] ryushare uploaded keep2share

[WakeUpNFuck.com / PierreWoodman.com] Vyvan Hill (WUNF 202) [2016 г., Anal, DP, DPP, Gangbang, Foursome MMMF, Swallow, 720p]

Eva Karera, Jasmine Gomez, TeachSex ryushare uploaded keep2share

Eva Karera, Jasmine Gomez, TeachSex

www HD xxxvideos downlaod com ryushare uploaded keep2share

www HD xxxvideos downlaod com

Julie Vee ryushare uploaded keep2share

Julie Vee

Report broken links / Post a comment

You must be logged in to post a comment.



General\r\nComplete name : D:HD Teens Download Porn Sex clips movies Tube.xxxTRNSGRtsTRNSGRts.mp4\r\nFormat : MPEG-4\r\nFormat profile : Base Media\r\nCodec ID : isom\r\nFile size : 889 MiB\r\nDuration : 39mn 57s\r\nOverall bit rate mode : Variable\r\nOverall bit rate : 3 110 Kbps\r\nEncoded date : UTC 2014-02-02 19:25:08\r\nTagged date : UTC 2014-02-02 19:25:08\r\nWriting application : My MP4Box GUI 0.6.0.6 \r\n\r\nVideo\r\nID : 1\r\nFormat : AVC\r\nFormat/Info : Advanced Video Codec\r\nFormat profile : [email protected]\r\nFormat settings, CABAC : Yes\r\nFormat settings, ReFrames : 4 frames\r\nCodec ID : avc1\r\nCodec ID/Info : Advanced Video Coding\r\nDuration : 39mn 57s\r\nBit rate : 2 950 Kbps\r\nMaximum bit rate : 5 527 Kbps\r\nWidth : 1 280 pixels\r\nHeight : 720 pixels\r\nDisplay aspect ratio : 16:9\r\nFrame rate mode : Constant\r\nFrame rate : 25.000 fps\r\nColor space : YUV\r\nChroma subsampling : 4:2:0\r\nBit depth : 8 bits\r\nScan type : Progressive\r\nBits/(Pixel*Frame) : 0.128\r\nStream size : 843 MiB (95%)\r\nTitle : TryTeens.14.01.31.Taissia.720p.mp4\r\nWriting library : x264 core 133 r2334 a3ac64b\r\nEncoding settings : cabac=1 / ref=4 / deblock=1:0:0 / analyse=0x3:0x113 / me=umh / subme=7 / psy=0 / mixed_ref=1 / me_range=24 / chroma_me=1 / trellis=1 / 8x8dct=1 / cqm=0 / deadzone=21,11 / fast_pskip=0 / chroma_qp_offset=0 / threads=12 / lookahead_threads=2 / sliced_threads=0 / nr=0 / decimate=0 / interlaced=0 / bluray_compat=0 / constrained_intra=0 / bframes=3 / b_pyramid=2 / b_adapt=2 / b_bias=0 / direct=3 / weightb=1 / open_gop=0 / weightp=2 / keyint=250 / keyint_min=25 / scenecut=40 / intra_refresh=0 / rc_lookahead=40 / rc=2pass / mbtree=1 / bitrate=2950 / ratetol=1.0 / qcomp=0.60 / qpmin=0 / qpmax=69 / qpstep=4 / cplxblur=20.0 / qblur=0.5 / vbv_maxrate=62500 / vbv_bufsize=78125 / nal_hrd=none / ip_ratio=1.40 / aq=2:1.00\r\nEncoded date : UTC 2014-02-02 17:30:13\r\nTagged date : UTC 2014-02-02 19:27:58\r\n\r\nAudio\r\nID : 2\r\nFormat : AAC\r\nFormat/Info : Advanced Audio Codec\r\nFormat profile : LC\r\nCodec ID : 40\r\nDuration : 39mn 57s\r\nBit rate mode : Variable\r\nBit rate : 155 Kbps\r\nMaximum bit rate : 197 Kbps\r\nChannel(s) : 2 channels\r\nChannel positions : Front: L R\r\nSampling rate : 44.1 KHz\r\nCompression mode : Lossy\r\nStream size : 44.4 MiB (5%)\r\nTitle : TryTeens.14.01.31.Taissia.m4a\r\nEncoded date : UTC 2014-02-02 19:27:48\r\nTagged date : UTC 2014-02-02 19:27:58\r\n\r\n