Sweet Teen Porn – Young Porn Videos 3834

Teen porn movies 3835Teen Sex Movies 3831

Posted in HD Porn, Pornstar, Sex Movies, Teen | 7517 Views |


Rate this girl !!!




cover

\r\n

1920x1080p / MP4 / 1.25 GB

\r\n

UPLOADED / RYUSHARE / FILEOM / KEEP2SHARE

\r\n \r\n

SCREENSHOTS:

\r\n

screens

\r\n



DOWNLOAD

Keep2share.cc - Uploaded.net - Openload.co - Rapidu.net


http://ryushare.com/o9tnr1v7b2tu/Sp1c1ngUpS3x.mp4
http://ul.to/bfwkzrhb/Sp1c1ngUpS3x.mp4
http://fileom.com/xf0ewelmqbfj/Sp1c1ngUpS3x.mp4.html
http://k2s.cc/file/134354423d91c/Sp1c1ngUpS3x.mp4


Premium here:
uploaded.net
keep2share.cc
rapidu.net.cc

Teens related to Sweet Teen Porn – Young Porn Videos 3834


HD Sex World Videos High Definition Free Porn 3501 ryushare uploaded keep2share

HD Sex World Videos High Definition Free Porn 3501

High Definition Movies on HD 225408 ryushare uploaded keep2share

High Definition Movies on HD 225408

Tiffany Fox, Alina Li – Sleepover Aftermath ryushare uploaded keep2share

Tiffany Fox, Alina Li – Sleepover Aftermath

Young Sex Movies 4407 ryushare uploaded keep2share

Young Sex Movies 4407

Hd young videos Student Amateur Jimslip 4764 ryushare uploaded keep2share

Hd young videos Student Amateur Jimslip 4764

Alexia aka Kitty Jane (Secret Part I) ryushare uploaded keep2share

Alexia aka Kitty Jane (Secret Part I)

porn star lolaa telar ryushare uploaded keep2share

porn star lolaa telar

Fresh Teen Videos 223852 ryushare uploaded keep2share

Fresh Teen Videos 223852

Tube Young Sex 3436 ryushare uploaded keep2share

Tube Young Sex 3436

Teen porn movies 225220 ryushare uploaded keep2share

Teen porn movies 225220

Schoolgirl white skin ryushare uploaded keep2share

Schoolgirl white skin

Jenny Glam – Who’s My Good Girl? ryushare uploaded keep2share

Jenny Glam – Who’s My Good Girl?

Hd young videos 3854 ryushare uploaded keep2share

Hd young videos 3854

Tube xxx 5228 ryushare uploaded keep2share

Tube xxx 5228

Tinny young pornstar fucked for all holes ryushare uploaded keep2share

Tinny young pornstar fucked for all holes

ww hot sex hdvideo download com ryushare uploaded keep2share

ww hot sex hdvideo download com

Hd young videos 224038 ryushare uploaded keep2share

Hd young videos 224038

fullhdsexvideo ryushare uploaded keep2share

fullhdsexvideo

Teen porn xxx 223828 ryushare uploaded keep2share

Teen porn xxx 223828

Teen Sex Movies Young Porn Tube Vids 5668 ryushare uploaded keep2share

Teen Sex Movies Young Porn Tube Vids 5668

Evening at home with brunette ryushare uploaded keep2share

Evening at home with brunette

barazzar hd fuck com 226325 ryushare uploaded keep2share

barazzar hd fuck com 226325

Young Sex Movies 5419 ryushare uploaded keep2share

Young Sex Movies 5419

Yulia – Wild Anal Slut Owned In The Forest ryushare uploaded keep2share

Yulia – Wild Anal Slut Owned In The Forest

Young XXX Tube Videos 2398 ryushare uploaded keep2share

Young XXX Tube Videos 2398

Taissia Shanti – Delicate ryushare uploaded keep2share

Taissia Shanti – Delicate

Analized.com] Kate England (Kate Englands Ass Punished by Huge Black Cock) [2016 г., All Sex, Anal, 720p] ryushare uploaded keep2share

Analized.com] Kate England (Kate Englands Ass Punished by Huge Black Cock) [2016 г., All Sex, Anal, 720p]

Tantric Massage – All Sex HD1080p ryushare uploaded keep2share

Tantric Massage – All Sex HD1080p

Tube Young Sex 1390 ryushare uploaded keep2share

Tube Young Sex 1390

HD Sex World Videos High Definition Free Porn 225387 ryushare uploaded keep2share

HD Sex World Videos High Definition Free Porn 225387

Hot Teen Sex HD videos 5653 ryushare uploaded keep2share

Hot Teen Sex HD videos 5653

Maria Pie And Nomi – Melting Like Butter ryushare uploaded keep2share

Maria Pie And Nomi – Melting Like Butter

Teen sex xxx hd 4852 ryushare uploaded keep2share

Teen sex xxx hd 4852

download teen hd porn video small size ryushare uploaded keep2share

download teen hd porn video small size

Teen Sex Movies 224085 ryushare uploaded keep2share

Teen Sex Movies 224085

Report broken links / Post a comment

You must be logged in to post a comment.



General\r\nComplete name : D:hd tube pornstars amateur porn young girls sex direct download online movies clips\r\nryushare.com uploaded.net keep2share.cc fileom.com streamcloud.eu allmyvideos.net ul.to download porn movies clipBeata Undine - Spicing Up The Sex.mp4\r\nFormat : MPEG-4\r\nFormat profile : Base Media / Version 2\r\nCodec ID : mp42\r\nFile size : 1.25 GiB\r\nDuration : 28mn 57s\r\nOverall bit rate mode : Variable\r\nOverall bit rate : 6 191 Kbps\r\nEncoded date : UTC 2014-06-18 16:29:45\r\nTagged date : UTC 2014-06-18 16:29:45\r\n\r\nVideo\r\nID : 1\r\nFormat : AVC\r\nFormat/Info : Advanced Video Codec\r\nFormat profile : [email protected]\r\nFormat settings, CABAC : Yes\r\nFormat settings, ReFrames : 4 frames\r\nCodec ID : avc1\r\nCodec ID/Info : Advanced Video Coding\r\nDuration : 28mn 57s\r\nBit rate : 5 997 Kbps\r\nWidth : 1 920 pixels\r\nHeight : 1 080 pixels\r\nDisplay aspect ratio : 16:9\r\nFrame rate mode : Constant\r\nFrame rate : 25.000 fps\r\nStandard : PAL\r\nColor space : YUV\r\nChroma subsampling : 4:2:0\r\nBit depth : 8 bits\r\nScan type : Progressive\r\nBits/(Pixel*Frame) : 0.116\r\nStream size : 1.21 GiB (97%)\r\nLanguage : English\r\nEncoded date : UTC 2014-06-18 16:29:45\r\nTagged date : UTC 2014-06-18 16:29:45\r\nColor primaries : BT.709\r\nTransfer characteristics : BT.709\r\nMatrix coefficients : BT.709\r\n\r\nAudio\r\nID : 2\r\nFormat : AAC\r\nFormat/Info : Advanced Audio Codec\r\nFormat profile : LC\r\nCodec ID : 40\r\nDuration : 28mn 57s\r\nBit rate mode : Variable\r\nBit rate : 192 Kbps\r\nMaximum bit rate : 233 Kbps\r\nChannel(s) : 2 channels\r\nChannel positions : Front: L R\r\nSampling rate : 48.0 KHz\r\nCompression mode : Lossy\r\nStream size : 39.3 MiB (3%)\r\nLanguage : English\r\nEncoded date : UTC 2014-06-18 16:29:45\r\nTagged date : UTC 2014-06-18 16:29:45\r\n\r\n\r\n\r\nRAPIDGATOR / UPLOADED / UPLOADABLE / KEEP2SHARE\r\nUPLOADED / RYUSHARE / FILEOM / KEEP2SHARE\r\n\r\nhd tube amateur porn young girls sex direct download online movies clips\r\nryushare.com uploaded.net keep2share.cc fileom.com streamcloud.eu allmyvideos.net ul.to download porn movies clip