Tanned Fucking for money in the street

Beautiful small titsTanned teen in pink sofa

Posted in Amateur, HD Porn, Sex Movies, Teen | 13026 Views |


Rate this girl !!!




\r\nhttp://img101.imagetwist.com/i/05151/lsmy53pr6fwg.jpeg\r\n\r\n \r\n\r\nTanned Fucking for money in the street\r\n\r\n Link(702 Mb||35:24||854*480||WMV)



DOWNLOAD

Keep2share.cc - Uploaded.net - Openload.co - Rapidu.net


http://keep2share.cc/file/52e5cdadb7492
http://ryushare.com/ymho5g4p39il/PBCKSDvl.rar
http://ul.to/j6v21ls0


Premium here:
uploaded.net
keep2share.cc
rapidu.net.cc


Teens related to Tanned Fucking for money in the street


smoll girl 18sexhd com ryushare uploaded keep2share

smoll girl 18sexhd com

hd xxx sex muvi com ryushare uploaded keep2share

hd xxx sex muvi com

16yers hd xxx com 226434 ryushare uploaded keep2share

16yers hd xxx com 226434

Small girls and boys porn 4304 ryushare uploaded keep2share

Small girls and boys porn 4304

Jenny Glam – Who’s My Good Girl? ryushare uploaded keep2share

Jenny Glam – Who’s My Good Girl?

High Definition Movies on HD 3998 ryushare uploaded keep2share

High Definition Movies on HD 3998

Denise Sky ryushare uploaded keep2share

Denise Sky

Porn teen hd downloads 224873 ryushare uploaded keep2share

Porn teen hd downloads 224873

Hardcore Sex Hub 1355 ryushare uploaded keep2share

Hardcore Sex Hub 1355

Hd quality – Teen sex video 1722 ryushare uploaded keep2share

Hd quality – Teen sex video 1722

www free hd virgin porn download com ryushare uploaded keep2share

www free hd virgin porn download com

Handjob from cute amateur wife in hot amateur porn 3 ryushare uploaded keep2share

Handjob from cute amateur wife in hot amateur porn 3

waltz autumn sexart ryushare uploaded keep2share

waltz autumn sexart

PORNOZZ FULL 720 226768 ryushare uploaded keep2share

PORNOZZ FULL 720 226768

Free Young Porn Videos XXX Teen Porn 5149 ryushare uploaded keep2share

Free Young Porn Videos XXX Teen Porn 5149

High Definition Movies on HD 224690 ryushare uploaded keep2share

High Definition Movies on HD 224690

teenporno mp4 ryushare uploaded keep2share

teenporno mp4

Teen Sex Videos Tube Movies 4833 ryushare uploaded keep2share

Teen Sex Videos Tube Movies 4833

Teen porn xxx 223773 ryushare uploaded keep2share

Teen porn xxx 223773

Hd young videos 4049 ryushare uploaded keep2share

Hd young videos 4049

Porn party teen girls 224803 ryushare uploaded keep2share

Porn party teen girls 224803

xxxsexHDvieo 226349 ryushare uploaded keep2share

xxxsexHDvieo 226349

Young XXX Tube Videos 3884 ryushare uploaded keep2share

Young XXX Tube Videos 3884

Yours Forever – Lisa ryushare uploaded keep2share

Yours Forever – Lisa

film sexx japan hd mqnia 226026 ryushare uploaded keep2share

film sexx japan hd mqnia 226026

Girls sex art hd teens videos 225709 ryushare uploaded keep2share

Girls sex art hd teens videos 225709

Xxxxx suan mp4 226337 ryushare uploaded keep2share

Xxxxx suan mp4 226337

porn HD anfisa argentina ryushare uploaded keep2share

porn HD anfisa argentina

www x hd video dowanloding ryushare uploaded keep2share

www x hd video dowanloding

PC HD MP4 XXX COM 226748 ryushare uploaded keep2share

PC HD MP4 XXX COM 226748

www free downloade hd world sex com 226164 ryushare uploaded keep2share

www free downloade hd world sex com 226164

Good Teen Tube Sexy Young Naked Girls Movies 224884 ryushare uploaded keep2share

Good Teen Tube Sexy Young Naked Girls Movies 224884

www foto 8 teenxxx 226674 ryushare uploaded keep2share

www foto 8 teenxxx 226674

Teen Sex Porn Videos Free Nude Teens 224616 ryushare uploaded keep2share

Teen Sex Porn Videos Free Nude Teens 224616

www xxx videos dawnload com ryushare uploaded keep2share

www xxx videos dawnload com

Report broken links / Post a comment

You must be logged in to post a comment.



General\r\nComplete name : D:Tanned Fucking for money in the streetPBCKSDvlPBCKSDvl.wmv\r\nFormat : Windows Media\r\nFile size : 702 MiB\r\nDuration : 35mn 24s\r\nOverall bit rate : 2 771 Kbps\r\nMaximum Overall bit rate : 2 728 Kbps\r\nEncoded date : UTC 1970-01-01 00:00:00.000\r\nmajor_brand : isom\r\nminor_version : 512\r\ncompatible_brands : isomiso2avc1mp41\r\nWM/EncodingSettings : Lavf54.37.100\r\n\r\nVideo\r\nID : 1\r\nFormat : WMV2\r\nCodec ID : WMV2\r\nCodec ID/Info : Windows Media Video 8\r\nDescription of the codec : wmv2\r\nDuration : 35mn 24s\r\nBit rate : 2 525 Kbps\r\nWidth : 854 pixels\r\nHeight : 480 pixels\r\nDisplay aspect ratio : 16:9\r\nFrame rate : 23.976 fps\r\nBit depth : 8 bits\r\nBits/(Pixel*Frame) : 0.257\r\nStream size : 639 MiB (91%)\r\n\r\nAudio\r\nID : 2\r\nFormat : WMA\r\nFormat version : Version 2\r\nCodec ID : 161\r\nCodec ID/Info : Windows Media Audio\r\nDescription of the codec : Windows Media Audio V8\r\nDuration : 35mn 24s\r\nBit rate : 128 Kbps\r\nChannel(s) : 2 channels\r\nSampling rate : 48.0 KHz\r\nBit depth : 16 bits\r\nStream size : 32.4 MiB (5%)\r\n\r\n