Teen 18 Porn XXX Clips Naked 1367

Hot Teen Sex HD videos 1371HD Porn Video 1358

Posted in Amateur, HD Porn, Sex Movies, Teen | 12381 Views |


Rate this girl !!!




\r\n\r\n\r\nhttp://img102.imagetwist.com/i/05200/o1e5o8adfruu.jpeg\r\n\r\n Link(570 Mb||25:19||720*576||WMV)



DOWNLOAD

Keep2share.cc - Uploaded.net - Openload.co - Rapidu.net


http://ul.to/wiw1wvd9
http://ryushare.com/9hlsr4gocd69/TNSMSYlv.rar
http://keep2share.cc/file/adb9f1189af9d


Premium here:
uploaded.net
keep2share.cc
rapidu.net.cc


Teens related to Teen 18 Porn XXX Clips Naked 1367


waltz autumn sexart ryushare uploaded keep2share

waltz autumn sexart

TeenLustHD com ryushare uploaded keep2share

TeenLustHD com

Marina – YoungLibertines ryushare uploaded keep2share

Marina – YoungLibertines

xxx com full pc Hd video 720p ryushare uploaded keep2share

xxx com full pc Hd video 720p

www xxxx video donlood hd 226672 ryushare uploaded keep2share

www xxxx video donlood hd 226672

Girls sex art hd teens videos 225147 ryushare uploaded keep2share

Girls sex art hd teens videos 225147

Hd young videos 3854 ryushare uploaded keep2share

Hd young videos 3854

Free Porn Videos Xxx Movies Pussy Porn 5304 ryushare uploaded keep2share

Free Porn Videos Xxx Movies Pussy Porn 5304

Hot download sex girls movies 5611 ryushare uploaded keep2share

Hot download sex girls movies 5611

Small girl having hot group sex ryushare uploaded keep2share

Small girl having hot group sex

Nude Teens fucking hard 223931 ryushare uploaded keep2share

Nude Teens fucking hard 223931

www xxx18yeras movie hot 226733 ryushare uploaded keep2share

www xxx18yeras movie hot 226733

Porn teen hd downloads 224965 ryushare uploaded keep2share

Porn teen hd downloads 224965

High Definition Movies on HD Teen Porn XXX Tube 4650 ryushare uploaded keep2share

High Definition Movies on HD Teen Porn XXX Tube 4650

Welcome To The Wild / Beata ryushare uploaded keep2share

Welcome To The Wild / Beata

Brandi Melanie Melody – Real Amateur Girls ryushare uploaded keep2share

Brandi Melanie Melody – Real Amateur Girls

iglish porn sexi 226443 ryushare uploaded keep2share

iglish porn sexi 226443

College Teen Sex 5112 ryushare uploaded keep2share

College Teen Sex 5112

8 Teen XXX – Teen Sex 224622 ryushare uploaded keep2share

8 Teen XXX – Teen Sex 224622

HD Porn Teen Sex Videos 4992 ryushare uploaded keep2share

HD Porn Teen Sex Videos 4992

Young Sex Movies 225506 ryushare uploaded keep2share

Young Sex Movies 225506

lwww xxxx sex ryushare uploaded keep2share

lwww xxxx sex

hd hq sexy vefeos ryushare uploaded keep2share

hd hq sexy vefeos

HD sex movies downloads 3614 ryushare uploaded keep2share

HD sex movies downloads 3614

HQ Sex Movies Download 1132 ryushare uploaded keep2share

HQ Sex Movies Download 1132

Our Kind Of Fun ryushare uploaded keep2share

Our Kind Of Fun

Free Teen Porn Videos at Teen Sex Tube XXX 5378 ryushare uploaded keep2share

Free Teen Porn Videos at Teen Sex Tube XXX 5378

Teen 18 Porn XXX Clips Naked 3465 ryushare uploaded keep2share

Teen 18 Porn XXX Clips Naked 3465

Teens in Porno young porn videos and free teen sex 225010 ryushare uploaded keep2share

Teens in Porno young porn videos and free teen sex 225010

High Definition Movies on HD Teen Porn XXX Tube 1708 ryushare uploaded keep2share

High Definition Movies on HD Teen Porn XXX Tube 1708

HD Teen Sex Tube 225487 ryushare uploaded keep2share

HD Teen Sex Tube 225487

Nude Teens fucking hard 224248 ryushare uploaded keep2share

Nude Teens fucking hard 224248

Wow Girls Porn Clips download 224666 ryushare uploaded keep2share

Wow Girls Porn Clips download 224666

Young XXX Tube Videos 2696 ryushare uploaded keep2share

Young XXX Tube Videos 2696

Young xxx 225572 ryushare uploaded keep2share

Young xxx 225572

Report broken links / Post a comment

You must be logged in to post a comment.



General\r\nComplete name : D:HD Teens Tube Download Porn Sex clips movies.xxxTNSMSYlvTNSMSYlv.wmv\r\nFormat : Windows Media\r\nFile size : 570 MiB\r\nDuration : 25mn 19s\r\nOverall bit rate mode : Constant\r\nOverall bit rate : 3 149 Kbps\r\nMaximum Overall bit rate : 3 163 Kbps\r\nPerformer : Royal-cash.com\r\nEncoded date : UTC 2008-06-23 07:13:10.790\r\nCopyright : Royal-cash.com\r\n\r\nVideo\r\nID : 2\r\nFormat : VC-1\r\nFormat profile : [email protected]\r\nCodec ID : WMV3\r\nCodec ID/Info : Windows Media Video 9\r\nCodec ID/Hint : WMV3\r\nDescription of the codec : Windows Media Video 9 - Professional\r\nDuration : 25mn 19s\r\nBit rate mode : Constant\r\nBit rate : 3 072 Kbps\r\nWidth : 720 pixels\r\nHeight : 576 pixels\r\nDisplay aspect ratio : 5:4\r\nFrame rate : 29.970 fps\r\nStandard : PAL\r\nColor space : YUV\r\nChroma subsampling : 4:2:0\r\nBit depth : 8 bits\r\nScan type : Progressive\r\nCompression mode : Lossy\r\nBits/(Pixel*Frame) : 0.247\r\nStream size : 556 MiB (98%)\r\nLanguage : English\r\n\r\nAudio\r\nID : 1\r\nFormat : WMA\r\nFormat version : Version 2\r\nCodec ID : 161\r\nCodec ID/Info : Windows Media Audio\r\nDescription of the codec : Windows Media Audio 9.1 - 64 kbps, 44 kHz, stereo 1-pass CBR\r\nDuration : 25mn 19s\r\nBit rate mode : Constant\r\nBit rate : 64.0 Kbps\r\nChannel(s) : 2 channels\r\nSampling rate : 44.1 KHz\r\nBit depth : 16 bits\r\nStream size : 11.6 MiB (2%)\r\nLanguage : English\r\n\r\n