Teen 18 Porn XXX Clips Naked 2154

Good Teen Tube Sexy Young Naked Girls Movies 2157Teens in Porno young porn videos and free teen sex 2151

Posted in Amateur, HD Porn, Sex Movies, Teen | 17217 Views |


Rate this girl !!!




\r\n\r\n9.jpeg\r\n\r\nLink(677 Mb||01:01:45||960*540||MP4)



DOWNLOAD

Keep2share.cc - Uploaded.net - Openload.co - Rapidu.net


http://ryushare.com/50xbwj05ilmr/SNDMSNln.mp4
http://ul.to/1ypea26o/SNDMSNln.mp4
http://k2s.cc/file/db8b6d3a41b3d/SNDMSNln.mp4


Premium here:
uploaded.net
keep2share.cc
rapidu.net.cc


Teens related to Teen 18 Porn XXX Clips Naked 2154


Teen porn xxx 5502 ryushare uploaded keep2share

Teen porn xxx 5502

High Definition Movies on HD Teen Porn XXX Tube 1249 ryushare uploaded keep2share

High Definition Movies on HD Teen Porn XXX Tube 1249

Teen Sex Movies Young Porn Tube Vids 225825 ryushare uploaded keep2share

Teen Sex Movies Young Porn Tube Vids 225825

JimSlip – Tina Hot – From book-worm to whore ryushare uploaded keep2share

JimSlip – Tina Hot – From book-worm to whore

HD Teen Sex Tube 225487 ryushare uploaded keep2share

HD Teen Sex Tube 225487

pone sexy downloadfor free 226713 ryushare uploaded keep2share

pone sexy downloadfor free 226713

Teen Sex Movies 4083 ryushare uploaded keep2share

Teen Sex Movies 4083

Teens in Porno young porn videos and free teen sex 225811 ryushare uploaded keep2share

Teens in Porno young porn videos and free teen sex 225811

Watch Teen Sex Videos HD 224129 ryushare uploaded keep2share

Watch Teen Sex Videos HD 224129

porn pinkworld hd ryushare uploaded keep2share

porn pinkworld hd

High Definition Movies on HD 5169 ryushare uploaded keep2share

High Definition Movies on HD 5169

Young XXX Tube Videos 3564 ryushare uploaded keep2share

Young XXX Tube Videos 3564

Two cocks for a teen ryushare uploaded keep2share

Two cocks for a teen

Free Porn Videos Xxx Movies Pussy Porn 1568 ryushare uploaded keep2share

Free Porn Videos Xxx Movies Pussy Porn 1568

Young XXX Tube Videos 224700 ryushare uploaded keep2share

Young XXX Tube Videos 224700

Teen porn movies 225949 ryushare uploaded keep2share

Teen porn movies 225949

www youngxxx videos com 226140 ryushare uploaded keep2share

www youngxxx videos com 226140

Teenies Videos – Teen Porn, Teen Sex, XXX Free Videos 1306 ryushare uploaded keep2share

Teenies Videos – Teen Porn, Teen Sex, XXX Free Videos 1306

Teen Sex Movies 224712 ryushare uploaded keep2share

Teen Sex Movies 224712

Teenage Fuck Clips 2806 ryushare uploaded keep2share

Teenage Fuck Clips 2806

18OnlyGirls Nikita (Gina Devine) Here I Cum! ryushare uploaded keep2share

18OnlyGirls Nikita (Gina Devine) Here I Cum!

PORNOZZ FULL 720 226768 ryushare uploaded keep2share

PORNOZZ FULL 720 226768

HD Porn Teen Sex Videos 224669 ryushare uploaded keep2share

HD Porn Teen Sex Videos 224669

download video bf sex full hd hq ryushare uploaded keep2share

download video bf sex full hd hq

xxx fuking feast times video hd dawunlod 226104 ryushare uploaded keep2share

xxx fuking feast times video hd dawunlod 226104

Teenage Fuck Clips 4687 ryushare uploaded keep2share

Teenage Fuck Clips 4687

teens xxx vetiyos ryushare uploaded keep2share

teens xxx vetiyos

Teen porn movies 1460 ryushare uploaded keep2share

Teen porn movies 1460

antartika poeno sex 226048 ryushare uploaded keep2share

antartika poeno sex 226048

HD Porn Teen Sex Videos 1629 ryushare uploaded keep2share

HD Porn Teen Sex Videos 1629

JoyMii.com Lara – Getting Laid ryushare uploaded keep2share

JoyMii.com Lara – Getting Laid

Fresh Teen Videos 3763 ryushare uploaded keep2share

Fresh Teen Videos 3763

HD Teens Sex Tube Videos XxX 223808 ryushare uploaded keep2share

HD Teens Sex Tube Videos XxX 223808

18 Years Old Girl – Episode 279 ryushare uploaded keep2share

18 Years Old Girl – Episode 279

antartika sex hd ryushare uploaded keep2share

antartika sex hd

Report broken links / Post a comment

You must be logged in to post a comment.



General\r\nComplete name : D:HD Teens Download Porn Sex clips movies TubeSNDMSNln.mp4\r\nFormat : MPEG-4\r\nCodec ID : M4V \r\nFile size : 677 MiB\r\nDuration : 1h 1mn\r\nOverall bit rate mode : Variable\r\nOverall bit rate : 1 532 Kbps\r\nEncoded date : UTC 2014-03-06 03:19:49\r\nTagged date : UTC 2014-03-06 03:19:49\r\n\r\nVideo\r\nID : 1\r\nFormat : AVC\r\nFormat/Info : Advanced Video Codec\r\nFormat profile : [email protected]\r\nFormat settings, CABAC : No\r\nFormat settings, ReFrames : 2 frames\r\nCodec ID : avc1\r\nCodec ID/Info : Advanced Video Coding\r\nDuration : 1h 1mn\r\nBit rate mode : Constant\r\nBit rate : 1 400 Kbps\r\nMaximum bit rate : 3 427 Kbps\r\nWidth : 960 pixels\r\nHeight : 540 pixels\r\nDisplay aspect ratio : 16:9\r\nFrame rate mode : Constant\r\nFrame rate : 29.970 fps\r\nColor space : YUV\r\nChroma subsampling : 4:2:0\r\nBit depth : 8 bits\r\nScan type : Progressive\r\nBits/(Pixel*Frame) : 0.090\r\nStream size : 618 MiB (91%)\r\nEncoded date : UTC 2014-03-06 03:19:49\r\nTagged date : UTC 2014-03-06 03:19:49\r\n\r\nAudio\r\nID : 2\r\nFormat : AAC\r\nFormat/Info : Advanced Audio Codec\r\nFormat profile : LC\r\nCodec ID : 40\r\nDuration : 1h 1mn\r\nBit rate mode : Variable\r\nBit rate : 128 Kbps\r\nMaximum bit rate : 137 Kbps\r\nChannel(s) : 2 channels\r\nChannel positions : Front: L R\r\nSampling rate : 44.1 KHz\r\nCompression mode : Lossy\r\nStream size : 55.5 MiB (8%)\r\nEncoded date : UTC 2014-03-06 03:19:49\r\nTagged date : UTC 2014-03-06 03:19:49\r\n\r\n