Teen 18 Porn XXX Clips Naked 3895

K Craving Lips 4 - CLIP BHD Sex World Videos High Definition Free Porn 3888

Posted in Amateur, HD Porn, Sex Movies, Teen | 24484 Views |


Rate this girl !!!




Mary\r\n\r\npicpic\r\n\r\nVideo format: mp4\r\nDuration: 00:24:53\r\nVideo: AVC; 722×406 (16:9); 657 Kbps; 25 fps; 0,090 bpp\r\nAudio: AAC LC; 179 Kbps; VBR; 2 ch\r\n\r\nloading\r\n\r\n \r\n\r\n 



DOWNLOAD

Keep2share.cc - Uploaded.net - Openload.co - Rapidu.net


http://ryushare.com/ap64k2rax237/t3.3n.s.d.mp4
http://ul.to/hworrsra/t3.3n.s.d.mp4
http://fileom.com/m1z5yvju4x7l/t3.3n.s.d.mp4.html
http://k2s.cc/file/6abb95909099e/t3.3n.s.d.mp4


Premium here:
uploaded.net
keep2share.cc
rapidu.net.cc


Teens related to Teen 18 Porn XXX Clips Naked 3895


Big tits Big Ass Sex with model ryushare uploaded keep2share

Big tits Big Ass Sex with model

TeenyLovers – Zlata ryushare uploaded keep2share

TeenyLovers – Zlata

Wow girls downloads hd 224420 ryushare uploaded keep2share

Wow girls downloads hd 224420

Teen Sex Movies 224817 ryushare uploaded keep2share

Teen Sex Movies 224817

Teen porn movies 1676 ryushare uploaded keep2share

Teen porn movies 1676

Xxxx 2014massage 226629 ryushare uploaded keep2share

Xxxx 2014massage 226629

Young Virgin Pussy Teen Fuck Tube 224968 ryushare uploaded keep2share

Young Virgin Pussy Teen Fuck Tube 224968

Molly – Deep and passionate anal ryushare uploaded keep2share

Molly – Deep and passionate anal

porn videos direct download 226299 ryushare uploaded keep2share

porn videos direct download 226299

www sexhdmovus com ryushare uploaded keep2share

www sexhdmovus com

LegalPorno.com] Rebecca Black takes 3 cocks in ryushare uploaded keep2share

LegalPorno.com] Rebecca Black takes 3 cocks in

hd xxx sex muvi com ryushare uploaded keep2share

hd xxx sex muvi com

www teen fuckhd image gallary com 226522 ryushare uploaded keep2share

www teen fuckhd image gallary com 226522

Young Sex Movies 4496 ryushare uploaded keep2share

Young Sex Movies 4496

Young xxx 225249 ryushare uploaded keep2share

Young xxx 225249

Download young porn sex 225038 ryushare uploaded keep2share

Download young porn sex 225038

HQ Sex Movies Download 4182 ryushare uploaded keep2share

HQ Sex Movies Download 4182

Porn HD Sex HD Teen Sex 3694 ryushare uploaded keep2share

Porn HD Sex HD Teen Sex 3694

Daisy Summers (Don’t Tell Your Sister Seriously) ryushare uploaded keep2share

Daisy Summers (Don’t Tell Your Sister Seriously)

HD Teen Sex Tube 224831 ryushare uploaded keep2share

HD Teen Sex Tube 224831

xxx hd move Hq 226564 ryushare uploaded keep2share

xxx hd move Hq 226564

Norma – Welcome to fuck her for cash ryushare uploaded keep2share

Norma – Welcome to fuck her for cash

WowGirls.com Vanda – The pleasure Is All Mine ryushare uploaded keep2share

WowGirls.com Vanda – The pleasure Is All Mine

Teenies Videos – Teen Porn, Teen Sex, XXX Free Videos 1828 ryushare uploaded keep2share

Teenies Videos – Teen Porn, Teen Sex, XXX Free Videos 1828

Teena Dolly – Teena Lipoldino 140 Movies ryushare uploaded keep2share

Teena Dolly – Teena Lipoldino 140 Movies

xxx vid sex hd18 www ryushare uploaded keep2share

xxx vid sex hd18 www

www8ten sex xxx com ryushare uploaded keep2share

www8ten sex xxx com

Teen 18 Porn XXX Clips Naked 2154 ryushare uploaded keep2share

Teen 18 Porn XXX Clips Naked 2154

HD Teen Sex Tube 3488 ryushare uploaded keep2share

HD Teen Sex Tube 3488

High Definition Movies on HD 224690 ryushare uploaded keep2share

High Definition Movies on HD 224690

The best Teen sex 223922 ryushare uploaded keep2share

The best Teen sex 223922

Movies Young legal porn 224470 ryushare uploaded keep2share

Movies Young legal porn 224470

Hot download sex girls movies 5611 ryushare uploaded keep2share

Hot download sex girls movies 5611

Beautiful small tits blonde ryushare uploaded keep2share

Beautiful small tits blonde

Report broken links / Post a comment

You must be logged in to post a comment.



General\r\nComplete name : D:porn young girls sex direct download online .mp4\r\nFormat : MPEG-4\r\nFormat profile : Base Media\r\nCodec ID : isom\r\nFile size : 150 MiB\r\nDuration : 24mn 53s\r\nOverall bit rate mode : Variable\r\nOverall bit rate : 843 Kbps\r\nMovie name : Downloaded from RARBG.COM\r\nPerformer : Royal-Cash.com\r\nWriting application : Lavf53.21.1\r\nCopyright : Royal-Cash.com\r\nComment : Downloaded from RARBG.COM\r\n\r\nVideo\r\nID : 1\r\nFormat : AVC\r\nFormat/Info : Advanced Video Codec\r\nFormat profile : [email protected]\r\nFormat settings, CABAC : Yes\r\nFormat settings, ReFrames : 5 frames\r\nCodec ID : avc1\r\nCodec ID/Info : Advanced Video Coding\r\nDuration : 24mn 53s\r\nBit rate : 658 Kbps\r\nWidth : 722 pixels\r\nHeight : 406 pixels\r\nDisplay aspect ratio : 16:9\r\nFrame rate mode : Constant\r\nFrame rate : 25.000 fps\r\nColor space : YUV\r\nChroma subsampling : 4:2:0\r\nBit depth : 8 bits\r\nScan type : Progressive\r\nBits/(Pixel*Frame) : 0.090\r\nStream size : 117 MiB (78%)\r\nWriting library : x264 core 123 r2189 35cf912\r\nEncoding settings : cabac=1 / ref=5 / deblock=1:0:0 / analyse=0x1:0x111 / me=umh / subme=8 / psy=1 / psy_rd=1.00:0.00 / mixed_ref=0 / me_range=16 / chroma_me=1 / trellis=1 / 8x8dct=0 / cqm=0 / deadzone=21,11 / fast_pskip=1 / chroma_qp_offset=-2 / threads=12 / sliced_threads=0 / nr=0 / decimate=1 / interlaced=0 / bluray_compat=0 / constrained_intra=0 / bframes=3 / b_pyramid=0 / b_adapt=2 / b_bias=0 / direct=3 / weightb=0 / open_gop=1 / weightp=2 / keyint=250 / keyint_min=25 / scenecut=40 / intra_refresh=0 / rc_lookahead=50 / rc=crf / mbtree=1 / crf=20.0 / qcomp=0.60 / qpmin=0 / qpmax=69 / qpstep=4 / ip_ratio=1.25 / aq=1:1.00\r\n\r\nAudio\r\nID : 2\r\nFormat : AAC\r\nFormat/Info : Advanced Audio Codec\r\nFormat profile : LC\r\nCodec ID : 40\r\nDuration : 24mn 53s\r\nBit rate mode : Variable\r\nBit rate : 180 Kbps\r\nChannel(s) : 2 channels\r\nChannel positions : Front: L R\r\nSampling rate : 44.1 KHz\r\nCompression mode : Lossy\r\nStream size : 32.0 MiB (21%)\r\n\r\nUPLOADED / RYUSHARE / FILEOM / KEEP2SHARE\r\n\r\nhd tube amateur porn young girls sex direct download online movies clips\r\nryushare.com uploaded.net keep2share.cc fileom.com streamcloud.eu allmyvideos.net ul.to download porn movies clip