Teen acrobat sex

Sex and lots of milkBig tits blonde with pierced nipples

Posted in Amateur, HD Porn, Sex Movies, Teen | 17585 Views |


Rate this girl !!!




\r\n\r\n\r\n\r\n\r\n\r\n Link(875 Mb||19:17||1920*1080||MPG) \r\n\r\nTeen acrobat sex



DOWNLOAD

Keep2share.cc - Uploaded.net - Openload.co - Rapidu.net


http://keep2share.cc/file/52e5d373d4f27
http://ryushare.com/fsds7qjkj5sd/DPHRDbl.rar
http://ul.to/ywxzjb3x


Premium here:
uploaded.net
keep2share.cc
rapidu.net.cc

Teens related to Teen acrobat sex


Wow girls hd porn teens 223846 ryushare uploaded keep2share

Wow girls hd porn teens 223846

HQ xxx videos in free download ryushare uploaded keep2share

HQ xxx videos in free download

HD Porn Video 224481 ryushare uploaded keep2share

HD Porn Video 224481

non HD xxx movie ryushare uploaded keep2share

non HD xxx movie

www full hd xxx sexy movie 226625 ryushare uploaded keep2share

www full hd xxx sexy movie 226625

HD porn uploaded 4876 ryushare uploaded keep2share

HD porn uploaded 4876

Teen 18 Porn XXX Clips Naked 2154 ryushare uploaded keep2share

Teen 18 Porn XXX Clips Naked 2154

College Teen Sex 1992 ryushare uploaded keep2share

College Teen Sex 1992

Hardcore sex videos in the high definition quality 3582 ryushare uploaded keep2share

Hardcore sex videos in the high definition quality 3582

1080P full hd hordcore sex movies ryushare uploaded keep2share

1080P full hd hordcore sex movies

Defloration porn videos 720p direct download free ryushare uploaded keep2share

Defloration porn videos 720p direct download free

Young xxx 224648 ryushare uploaded keep2share

Young xxx 224648

Hot Teen Sex HD videos 2425 ryushare uploaded keep2share

Hot Teen Sex HD videos 2425

romentic hd pornmovie download 226723 ryushare uploaded keep2share

romentic hd pornmovie download 226723

1020p hd sex videos 226575 ryushare uploaded keep2share

1020p hd sex videos 226575

fucking pix hd download ryushare uploaded keep2share

fucking pix hd download

Young XXX Tube Videos 2288 ryushare uploaded keep2share

Young XXX Tube Videos 2288

Teen porn movies 2560 ryushare uploaded keep2share

Teen porn movies 2560

Casting Vikki 1080p ryushare uploaded keep2share

Casting Vikki 1080p

hd china teen sex video download ryushare uploaded keep2share

hd china teen sex video download

Eva Rides on Top on a Nice Thick Cock ryushare uploaded keep2share

Eva Rides on Top on a Nice Thick Cock

image sexxxx porn 226599 ryushare uploaded keep2share

image sexxxx porn 226599

school porno movies ryushare uploaded keep2share

school porno movies

Teen Tits Tube, Young Girls Porn Videos 224313 ryushare uploaded keep2share

Teen Tits Tube, Young Girls Porn Videos 224313

Hot Teen Sex 2164 ryushare uploaded keep2share

Hot Teen Sex 2164

HD Porn Teen Sex Videos 5198 ryushare uploaded keep2share

HD Porn Teen Sex Videos 5198

www free hd short porn clips ryushare uploaded keep2share

www free hd short porn clips

Young XXX Tube Videos 3564 ryushare uploaded keep2share

Young XXX Tube Videos 3564

HQ Sex Movies Download 3507 ryushare uploaded keep2share

HQ Sex Movies Download 3507

Hot download sex girls movies 5611 ryushare uploaded keep2share

Hot download sex girls movies 5611

Ivana Sugar – Lovely arches ryushare uploaded keep2share

Ivana Sugar – Lovely arches

http//sexy hd video phtt sexy hd 12 ayer girls com ryushare uploaded keep2share

http//sexy hd video phtt sexy hd 12 ayer girls com

Free High Quality Sex Movies 1901 ryushare uploaded keep2share

Free High Quality Sex Movies 1901

TrickyMasseur.com Joanna ryushare uploaded keep2share

TrickyMasseur.com Joanna

Model porno sex 4099 ryushare uploaded keep2share

Model porno sex 4099

Report broken links / Post a comment

You must be logged in to post a comment.



General\r\nComplete name : D:Teen acrobat sexDPHRDblDPHRDbl.mpg\r\nFormat : MPEG-PS\r\nFile size : 875 MiB\r\nDuration : 19mn 17s\r\nOverall bit rate mode : Variable\r\nOverall bit rate : 6 345 Kbps\r\n\r\nVideo\r\nID : 224 (0xE0)\r\nFormat : MPEG Video\r\nFormat version : Version 1\r\nFormat settings, BVOP : No\r\nFormat settings, Matrix : Default\r\nFormat settings, GOP : N=12\r\nDuration : 19mn 17s\r\nBit rate mode : Variable\r\nBit rate : 6 090 Kbps\r\nWidth : 1 920 pixels\r\nHeight : 1 080 pixels\r\nDisplay aspect ratio : 16:9\r\nFrame rate : 24.000 fps\r\nColor space : YUV\r\nChroma subsampling : 4:2:0\r\nBit depth : 8 bits\r\nScan type : Progressive\r\nCompression mode : Lossy\r\nBits/(Pixel*Frame) : 0.122\r\nTime code of first frame : 00:00:00:00\r\nTime code source : Group of pictures header\r\nStream size : 840 MiB (96%)\r\n\r\nAudio\r\nID : 192 (0xC0)\r\nFormat : MPEG Audio\r\nFormat version : Version 1\r\nFormat profile : Layer 2\r\nDuration : 19mn 17s\r\nBit rate mode : Constant\r\nBit rate : 128 Kbps\r\nChannel(s) : 2 channels\r\nSampling rate : 48.0 KHz\r\nCompression mode : Lossy\r\nStream size : 17.7 MiB (2%)\r\n\r\n