Teen porn movies 1607

Hd young videos 1610HD Sex World Videos High Definition Free Porn 1604

Posted in Amateur, HD Porn, Sex Movies, Teen | 5417 Views |


Rate this girl !!!




\r\n\r\nhttp://img102.imagetwist.com/i/05248/gdz4uay51s0z.jpeg\r\n\r\n Link(680 Mb||30:05||960*540||WMV)



DOWNLOAD

Keep2share.cc - Uploaded.net - Openload.co - Rapidu.net


http://keep2share.cc/file/0c8b9277081f1
http://ryushare.com/0o0322fwy4mj/TRNSGRlx.rar
http://ul.to/ejx69oqi


Premium here:
uploaded.net
keep2share.cc
rapidu.net.cc


Teens related to Teen porn movies 1607


WowGirls.com Vanda – The pleasure Is All Mine ryushare uploaded keep2share

WowGirls.com Vanda – The pleasure Is All Mine

FuckStudies.com El Storm ryushare uploaded keep2share

FuckStudies.com El Storm

Teen Sex Movies 1769 ryushare uploaded keep2share

Teen Sex Movies 1769

Sweet Teen Porn – Young Porn Videos 224239 ryushare uploaded keep2share

Sweet Teen Porn – Young Porn Videos 224239

August Ames – Work It Out ryushare uploaded keep2share

August Ames – Work It Out

xxx video 6teen Hd ryushare uploaded keep2share

xxx video 6teen Hd

nxxx free hd videos dwondlod s ryushare uploaded keep2share

nxxx free hd videos dwondlod s

College Teen Sex 1898 ryushare uploaded keep2share

College Teen Sex 1898

Sweet Teen Porn – Young Porn Videos 4113 ryushare uploaded keep2share

Sweet Teen Porn – Young Porn Videos 4113

Tanned teen in pink sofa ryushare uploaded keep2share

Tanned teen in pink sofa

Free Porn Videos Xxx Movies Pussy Porn 224126 ryushare uploaded keep2share

Free Porn Videos Xxx Movies Pussy Porn 224126

real virgin Teent pussy image Hd com ryushare uploaded keep2share

real virgin Teent pussy image Hd com

HD Sex World Videos High Definition Free Porn 1604 ryushare uploaded keep2share

HD Sex World Videos High Definition Free Porn 1604

Teenage Fuck Clips 2643 ryushare uploaded keep2share

Teenage Fuck Clips 2643

Teens in Porno young porn videos and free teen sex 225503 ryushare uploaded keep2share

Teens in Porno young porn videos and free teen sex 225503

First time Sexual Films 18 sex xxx 224473 ryushare uploaded keep2share

First time Sexual Films 18 sex xxx 224473

HD Teen Sex Tube 3488 ryushare uploaded keep2share

HD Teen Sex Tube 3488

Hot hd teen sex videos 3912 ryushare uploaded keep2share

Hot hd teen sex videos 3912

High Definition Movies on HD 224800 ryushare uploaded keep2share

High Definition Movies on HD 224800

Porno lesbian young teens movies 4570 ryushare uploaded keep2share

Porno lesbian young teens movies 4570

Teenies Videos – Teen Porn, Teen Sex, XXX Free Videos 1828 ryushare uploaded keep2share

Teenies Videos – Teen Porn, Teen Sex, XXX Free Videos 1828

free download hd romance porn movie 226678 ryushare uploaded keep2share

free download hd romance porn movie 226678

beautifull girls fuck ryushare uploaded keep2share

beautifull girls fuck

Hot brunette blowjob ryushare uploaded keep2share

Hot brunette blowjob

Hd avi xxx sexy in ryushare uploaded keep2share

Hd avi xxx sexy in

download free highly compressed sex videos 226284 ryushare uploaded keep2share

download free highly compressed sex videos 226284

Teen 18 Porn XXX Clips Naked 3895 ryushare uploaded keep2share

Teen 18 Porn XXX Clips Naked 3895

Teenies Videos – Teen Porn, Teen Sex, XXX Free Videos 2648 ryushare uploaded keep2share

Teenies Videos – Teen Porn, Teen Sex, XXX Free Videos 2648

Nubiles.net Olivia Devine – Outdoor Orgasm ryushare uploaded keep2share

Nubiles.net Olivia Devine – Outdoor Orgasm

Teen Sex Movies Young Porn Tube Vids 225825 ryushare uploaded keep2share

Teen Sex Movies Young Porn Tube Vids 225825

HQ Sex Movies Download 5330 ryushare uploaded keep2share

HQ Sex Movies Download 5330

Teenies Videos – Teen Porn, Teen Sex, XXX Free Videos 5163 ryushare uploaded keep2share

Teenies Videos – Teen Porn, Teen Sex, XXX Free Videos 5163

sxy ccc xx 226377 ryushare uploaded keep2share

sxy ccc xx 226377

HD porn uploaded 3976 ryushare uploaded keep2share

HD porn uploaded 3976

Lucy Li & William Zeff – With Love ryushare uploaded keep2share

Lucy Li & William Zeff – With Love

Report broken links / Post a comment

You must be logged in to post a comment.



General\r\nComplete name : D:HD Teens Download Porn Sex clips movies Tube.xxxTRNSGRlxTRNSGRlx.wmv\r\nFormat : Windows Media\r\nFile size : 680 MiB\r\nDuration : 30mn 5s\r\nOverall bit rate mode : Constant\r\nOverall bit rate : 3 159 Kbps\r\nMaximum Overall bit rate : 3 172 Kbps\r\nEncoded date : UTC 2009-06-10 04:15:13.879\r\nSfOriginalFPS : 250000\r\n\r\nVideo\r\nID : 2\r\nFormat : VC-1\r\nFormat profile : [email protected]\r\nCodec ID : WMV3\r\nCodec ID/Info : Windows Media Video 9\r\nCodec ID/Hint : WMV3\r\nDescription of the codec : Windows Media Video 9 - Professional\r\nDuration : 30mn 5s\r\nBit rate mode : Constant\r\nBit rate : 3 130 Kbps\r\nWidth : 960 pixels\r\nHeight : 540 pixels\r\nDisplay aspect ratio : 16:9\r\nFrame rate : 25.000 fps\r\nColor space : YUV\r\nChroma subsampling : 4:2:0\r\nBit depth : 8 bits\r\nScan type : Progressive\r\nCompression mode : Lossy\r\nBits/(Pixel*Frame) : 0.241\r\nStream size : 673 MiB (99%)\r\nLanguage : Russian\r\n\r\nAudio\r\nID : 1\r\nFormat : WMA\r\nFormat version : Version 2\r\nCodec ID : 161\r\nCodec ID/Info : Windows Media Audio\r\nDescription of the codec : Windows Media Audio 9.2 - 16 kbps, 22 kHz, mono (A/V) 1-pass CBR\r\nDuration : 30mn 5s\r\nBit rate mode : Constant\r\nBit rate : 16.0 Kbps\r\nChannel(s) : 1 channel\r\nSampling rate : 22.05 KHz\r\nBit depth : 16 bits\r\nStream size : 3.45 MiB (1%)\r\nLanguage : Russian\r\n\r\n