Teen porn movies 1779

JimSlip - Tassia - Nympho in ChiefTeen porn movies 1909

Posted in Amateur, HD Porn, Sex Movies, Teen | 15262 Views |


Rate this girl !!!




\r\n\r\n\r\n\r\n\r\nhttp://img56.imagetwist.com/i/05280/ut4zkf247yi7.jpeg\r\n\r\n Link(734 Mb||23:39||1920*1080||MP4)



DOWNLOAD

Keep2share.cc - Uploaded.net - Openload.co - Rapidu.net


http://fileom.com/a69jlizs0wfh/BRNDKSnj.rar.html
http://k2s.cc/file/9cd75801a1883/BRNDKSnj.rar
http://ul.to/4k49s0p4


Premium here:
uploaded.net
keep2share.cc
rapidu.net.cc


Teens related to Teen porn movies 1779


Kail Takes on Two Horny Studs for some fun ryushare uploaded keep2share

Kail Takes on Two Horny Studs for some fun

Young Virgin Pussy Teen Fuck Tube 1916 ryushare uploaded keep2share

Young Virgin Pussy Teen Fuck Tube 1916

Teen Sex Videos Tube Movies 1396 ryushare uploaded keep2share

Teen Sex Videos Tube Movies 1396

Teen xxx sex hd 5505 ryushare uploaded keep2share

Teen xxx sex hd 5505

Tube xxx 223693 ryushare uploaded keep2share

Tube xxx 223693

Tube xxx 224403 ryushare uploaded keep2share

Tube xxx 224403

www hd model sex telars hd com 226682 ryushare uploaded keep2share

www hd model sex telars hd com 226682

Free Young Porn Videos XXX Teen Porn 4185 ryushare uploaded keep2share

Free Young Porn Videos XXX Teen Porn 4185

Young Virgin Pussy Teen Fuck Tube 224676 ryushare uploaded keep2share

Young Virgin Pussy Teen Fuck Tube 224676

Adult Hardcore XXX Sex Videos 5707 ryushare uploaded keep2share

Adult Hardcore XXX Sex Videos 5707

X-Angels Licie ryushare uploaded keep2share

X-Angels Licie

Natasha White And Dakota Skye ryushare uploaded keep2share

Natasha White And Dakota Skye

HD Porn Teen Sex Videos 4268 ryushare uploaded keep2share

HD Porn Teen Sex Videos 4268

Katarinka – Russian Teen – Pack 45 clips ryushare uploaded keep2share

Katarinka – Russian Teen – Pack 45 clips

Tube Young Sex 3436 ryushare uploaded keep2share

Tube Young Sex 3436

Young Virgin Pussy Teen Fuck Tube 3398 ryushare uploaded keep2share

Young Virgin Pussy Teen Fuck Tube 3398

Hot Teen Sex 1274 ryushare uploaded keep2share

Hot Teen Sex 1274

sex bf movies hd com 226379 ryushare uploaded keep2share

sex bf movies hd com 226379

XXX young porn sex 3489 ryushare uploaded keep2share

XXX young porn sex 3489

Teenage Fuck Clips 4687 ryushare uploaded keep2share

Teenage Fuck Clips 4687

HD Porn Teen Sex Videos 225413 ryushare uploaded keep2share

HD Porn Teen Sex Videos 225413

HD Teen Sex Tube 2148 ryushare uploaded keep2share

HD Teen Sex Tube 2148

Young Virgin Pussy Teen Fuck Tube 4366 ryushare uploaded keep2share

Young Virgin Pussy Teen Fuck Tube 4366

Big Birthday Party Fuck in Ibiza ryushare uploaded keep2share

Big Birthday Party Fuck in Ibiza

http is gd real xgrls hot video 226544 ryushare uploaded keep2share

http is gd real xgrls hot video 226544

Hot sex girls movies download 2609 ryushare uploaded keep2share

Hot sex girls movies download 2609

faapy sexyi x bideos hd 226060 ryushare uploaded keep2share

faapy sexyi x bideos hd 226060

Taissia Shanti – Delicate ryushare uploaded keep2share

Taissia Shanti – Delicate

Teen Sex Movies Young Porn Tube Vids 5668 ryushare uploaded keep2share

Teen Sex Movies Young Porn Tube Vids 5668

Teen Sex Movies Young Porn Tube Vids 225825 ryushare uploaded keep2share

Teen Sex Movies Young Porn Tube Vids 225825

[SellYourGF.com] Chanel Lux – I got a hot gf you can fuck ryushare uploaded keep2share

[SellYourGF.com] Chanel Lux – I got a hot gf you can fuck

xxx sexy moovi pchd download ryushare uploaded keep2share

xxx sexy moovi pchd download

Porn HD Sex HD Teen Sex 224824 ryushare uploaded keep2share

Porn HD Sex HD Teen Sex 224824

HD Teens Sex Tube Videos XxX 5400 ryushare uploaded keep2share

HD Teens Sex Tube Videos XxX 5400

HD porn uploaded 2790 ryushare uploaded keep2share

HD porn uploaded 2790

Report broken links / Post a comment

You must be logged in to post a comment.



General\r\nComplete name : D:HD Teens Download Porn Sex clips movies Tube.xxxBRNDKSnjBRNDKSnj.mp4\r\nFormat : MPEG-4\r\nFormat profile : Base Media\r\nCodec ID : isom\r\nFile size : 734 MiB\r\nDuration : 23mn 39s\r\nOverall bit rate mode : Variable\r\nOverall bit rate : 4 336 Kbps\r\nWriting application : Lavf52.64.2\r\n\r\nVideo\r\nID : 1\r\nFormat : AVC\r\nFormat/Info : Advanced Video Codec\r\nFormat profile : [email protected]\r\nFormat settings, CABAC : Yes\r\nFormat settings, ReFrames : 2 frames\r\nCodec ID : avc1\r\nCodec ID/Info : Advanced Video Coding\r\nDuration : 23mn 39s\r\nBit rate : 4 222 Kbps\r\nWidth : 1 920 pixels\r\nHeight : 1 080 pixels\r\nDisplay aspect ratio : 16:9\r\nFrame rate mode : Constant\r\nFrame rate : 29.970 fps\r\nColor space : YUV\r\nChroma subsampling : 4:2:0\r\nBit depth : 8 bits\r\nScan type : Progressive\r\nBits/(Pixel*Frame) : 0.068\r\nStream size : 715 MiB (97%)\r\nWriting library : x264 core 107\r\nEncoding settings : cabac=1 / ref=2 / deblock=1:0:0 / analyse=0x3:0x113 / me=hex / subme=6 / psy=1 / psy_rd=1.00:0.00 / mixed_ref=0 / me_range=16 / chroma_me=1 / trellis=0 / 8x8dct=1 / cqm=0 / deadzone=21,11 / fast_pskip=1 / chroma_qp_offset=-2 / threads=24 / sliced_threads=0 / nr=0 / decimate=1 / interlaced=0 / constrained_intra=0 / bframes=3 / b_pyramid=0 / b_adapt=1 / b_bias=0 / direct=3 / weightb=1 / open_gop=0 / weightp=2 / keyint=250 / keyint_min=25 / scenecut=40 / intra_refresh=0 / rc_lookahead=40 / rc=crf / mbtree=1 / crf=20.0 / qcomp=0.60 / qpmin=10 / qpmax=51 / qpstep=4 / ip_ratio=1.41 / aq=1:1.00\r\n\r\nAudio\r\nID : 2\r\nFormat : AAC\r\nFormat/Info : Advanced Audio Codec\r\nFormat profile : LC\r\nCodec ID : 40\r\nDuration : 23mn 39s\r\nBit rate mode : Variable\r\nBit rate : 108 Kbps\r\nChannel(s) : 2 channels\r\nChannel positions : Front: L R\r\nSampling rate : 44.1 KHz\r\nCompression mode : Lossy\r\nStream size : 18.3 MiB (2%)\r\n\r\n