Teen porn movies 1954

Teen Porn XXX Tube 1957Young teens tube hot girls free porn video 1951

Posted in HD Porn, Pornstar, Sex Movies, Teen | 9133 Views |


Rate this girl !!!




\r\n\r\nhttp://img101.imagetwist.com/i/05120/j2oyxqn50b33.jpeg\r\n\r\n Link(458 Mb||32:35||960*544||MP4)



DOWNLOAD

Keep2share.cc - Uploaded.net - Openload.co - Rapidu.net


http://keep2share.cc/file/2034d2290a918
http://ul.to/n5punwc1
http://ryushare.com/rvh5ytuwd930/DGHSCRys.rar


Premium here:
uploaded.net
keep2share.cc
rapidu.net.cc


Teens related to Teen porn movies 1954


HD Porn Teen Sex Videos 225926 ryushare uploaded keep2share

HD Porn Teen Sex Videos 225926

21 sextury hd resimler 226581 ryushare uploaded keep2share

21 sextury hd resimler 226581

Porn HD Sex HD Teen Sex 224013 ryushare uploaded keep2share

Porn HD Sex HD Teen Sex 224013

Free Porn Videos Xxx Movies Pussy Porn 3666 ryushare uploaded keep2share

Free Porn Videos Xxx Movies Pussy Porn 3666

Teen 18 Porn XXX Clips Naked 2154 ryushare uploaded keep2share

Teen 18 Porn XXX Clips Naked 2154

Nude Teens fucking hard 5172 ryushare uploaded keep2share

Nude Teens fucking hard 5172

Teen Sex Videos Tube Movies 225164 ryushare uploaded keep2share

Teen Sex Videos Tube Movies 225164

High Definition Movies on HD Teen Porn XXX Tube 2367 ryushare uploaded keep2share

High Definition Movies on HD Teen Porn XXX Tube 2367

J. Joanna – I’m Eve. Want An Apple? ryushare uploaded keep2share

J. Joanna – I’m Eve. Want An Apple?

Girls do porn in HD 224797 ryushare uploaded keep2share

Girls do porn in HD 224797

Passion-HD Lily Ariana 1080 ryushare uploaded keep2share

Passion-HD Lily Ariana 1080

TrickyMasseur.com Avina ryushare uploaded keep2share

TrickyMasseur.com Avina

xvideos porn hd videos 226278 ryushare uploaded keep2share

xvideos porn hd videos 226278

HD Porn Videos 2800 ryushare uploaded keep2share

HD Porn Videos 2800

www xxx hot 18 hd videos com ryushare uploaded keep2share

www xxx hot 18 hd videos com

xxx hd first time sex pic ryushare uploaded keep2share

xxx hd first time sex pic

Hd young videos 3854 ryushare uploaded keep2share

Hd young videos 3854

8 Teen XXX – Teen Sex 225179 ryushare uploaded keep2share

8 Teen XXX – Teen Sex 225179

Nude Teens fucking hard 225375 ryushare uploaded keep2share

Nude Teens fucking hard 225375

www pinkwordcom 226327 ryushare uploaded keep2share

www pinkwordcom 226327

Sex Teens porn movies 3015 ryushare uploaded keep2share

Sex Teens porn movies 3015

Young xxx 225438 ryushare uploaded keep2share

Young xxx 225438

Tube Young Sex 225873 ryushare uploaded keep2share

Tube Young Sex 225873

Porn teen hd downloads 224721 ryushare uploaded keep2share

Porn teen hd downloads 224721

Wow Porn Movies download) 224985 ryushare uploaded keep2share

Wow Porn Movies download) 224985

Free High Quality Sex Movies 5278 ryushare uploaded keep2share

Free High Quality Sex Movies 5278

JimSlip – Tassia – Nympho in Chief ryushare uploaded keep2share

JimSlip – Tassia – Nympho in Chief

Lucy Li – Perky Teen Lucy Li Gets Lathered download in hd 226168 ryushare uploaded keep2share

Lucy Li – Perky Teen Lucy Li Gets Lathered download in hd 226168

Good Teen Tube Sexy Young Naked Girls Movies 225497 ryushare uploaded keep2share

Good Teen Tube Sexy Young Naked Girls Movies 225497

HD Porn Teen Sex Videos 3944 ryushare uploaded keep2share

HD Porn Teen Sex Videos 3944

Young teens tube hot girls free porn video 5000 ryushare uploaded keep2share

Young teens tube hot girls free porn video 5000

Klixen – K Two Teasing Tongues 12 – A ryushare uploaded keep2share

Klixen – K Two Teasing Tongues 12 – A

Wow Girls Porn Clips download 223967 ryushare uploaded keep2share

Wow Girls Porn Clips download 223967

Free Young Porn Videos XXX Teen Porn 3871 ryushare uploaded keep2share

Free Young Porn Videos XXX Teen Porn 3871

Teen 18 Porn XXX Clips Naked 1367 ryushare uploaded keep2share

Teen 18 Porn XXX Clips Naked 1367

Report broken links / Post a comment

You must be logged in to post a comment.



General\r\nComplete name : D:HD Teens Download Porn Sex clips movies Tube.xxxDGHSCRysDGHSCRys.mp4\r\nFormat : MPEG-4\r\nFormat profile : Base Media\r\nCodec ID : isom\r\nFile size : 458 MiB\r\nDuration : 32mn 35s\r\nOverall bit rate mode : Variable\r\nOverall bit rate : 1 965 Kbps\r\nWriting application : Lavf52.93.0\r\n\r\nVideo\r\nID : 1\r\nFormat : AVC\r\nFormat/Info : Advanced Video Codec\r\nFormat profile : [email protected]\r\nFormat settings, CABAC : Yes\r\nFormat settings, ReFrames : 4 frames\r\nCodec ID : avc1\r\nCodec ID/Info : Advanced Video Coding\r\nDuration : 32mn 35s\r\nBit rate : 1 800 Kbps\r\nWidth : 960 pixels\r\nHeight : 544 pixels\r\nDisplay aspect ratio : 16:9\r\nFrame rate mode : Constant\r\nFrame rate : 29.970 fps\r\nColor space : YUV\r\nChroma subsampling : 4:2:0\r\nBit depth : 8 bits\r\nScan type : Progressive\r\nBits/(Pixel*Frame) : 0.115\r\nStream size : 421 MiB (92%)\r\nWriting library : x264 core 107\r\nEncoding settings : cabac=1 / ref=3 / deblock=1:0:0 / analyse=0x3:0x113 / me=umh / subme=6 / psy=1 / psy_rd=1.00:0.00 / mixed_ref=1 / me_range=16 / chroma_me=1 / trellis=0 / 8x8dct=1 / cqm=0 / deadzone=21,11 / fast_pskip=1 / chroma_qp_offset=-2 / threads=1 / sliced_threads=0 / nr=0 / decimate=1 / interlaced=0 / constrained_intra=0 / bframes=2 / b_pyramid=2 / b_adapt=2 / b_bias=0 / direct=2 / weightb=1 / open_gop=0 / weightp=0 / keyint=30 / keyint_min=16 / scenecut=0 / intra_refresh=0 / rc_lookahead=30 / rc=abr / mbtree=1 / bitrate=1800 / ratetol=1.0 / qcomp=0.60 / qpmin=1 / qpmax=31 / qpstep=4 / ip_ratio=1.41 / aq=1:1.00\r\n\r\nAudio\r\nID : 2\r\nFormat : AAC\r\nFormat/Info : Advanced Audio Codec\r\nFormat profile : LC\r\nCodec ID : 40\r\nDuration : 32mn 35s\r\nBit rate mode : Variable\r\nBit rate : 152 Kbps\r\nChannel(s) : 2 channels\r\nChannel positions : Front: L R\r\nSampling rate : 44.1 KHz\r\nCompression mode : Lossy\r\nStream size : 35.4 MiB (8%)\r\n\r\n