Teen porn movies 2125

Free High Quality Sex Movies 2128Teen Sex Movies 2122

Posted in Amateur, HD Porn, Sex Movies, Teen | 8826 Views |


Rate this girl !!!




\r\n\r\n5.jpeg\r\n\r\n Link(894 Mb||27:08||1280*720||MP4)



DOWNLOAD

Keep2share.cc - Uploaded.net - Openload.co - Rapidu.net


http://k2s.cc/file/23ad1168ed9db/GPNRWld.mp4
http://ryushare.com/1fwgeyvpa531/GPNRWld.mp4
http://ul.to/6uetg10e/GPNRWld.mp4


Premium here:
uploaded.net
keep2share.cc
rapidu.net.cc


Teens related to Teen porn movies 2125


Hot Teen Sex 224220 ryushare uploaded keep2share

Hot Teen Sex 224220

Jassie Gold – Hardcore Fucking ryushare uploaded keep2share

Jassie Gold – Hardcore Fucking

Free High Quality Sex Movies 225595 ryushare uploaded keep2share

Free High Quality Sex Movies 225595

Teen Tits Tube, Young Girls Porn Videos 5028 ryushare uploaded keep2share

Teen Tits Tube, Young Girls Porn Videos 5028

18 years girl xxx sex videos) 4656 ryushare uploaded keep2share

18 years girl xxx sex videos) 4656

PC HD MP4 XXX COM 226748 ryushare uploaded keep2share

PC HD MP4 XXX COM 226748

Free Young Porn Videos XXX Teen Porn 224223 ryushare uploaded keep2share

Free Young Porn Videos XXX Teen Porn 224223

Adult Hardcore XXX Sex Videos 4702 ryushare uploaded keep2share

Adult Hardcore XXX Sex Videos 4702

Free Young Porn Videos XXX Teen Porn 3871 ryushare uploaded keep2share

Free Young Porn Videos XXX Teen Porn 3871

Teen Tits Tube, Young Girls Porn Videos 224090 ryushare uploaded keep2share

Teen Tits Tube, Young Girls Porn Videos 224090

Tube Young Sex 225873 ryushare uploaded keep2share

Tube Young Sex 225873

Free High Quality Sex Movies 2139 ryushare uploaded keep2share

Free High Quality Sex Movies 2139

Analized.com] Kate England (Kate Englands Ass Punished by Huge Black Cock) [2016 г., All Sex, Anal, 720p] ryushare uploaded keep2share

Analized.com] Kate England (Kate Englands Ass Punished by Huge Black Cock) [2016 г., All Sex, Anal, 720p]

WowGirls.com Linda Sweet, Lucy Li – True Fulfillment ryushare uploaded keep2share

WowGirls.com Linda Sweet, Lucy Li – True Fulfillment

8 Teen XXX – Teen Sex 1309 ryushare uploaded keep2share

8 Teen XXX – Teen Sex 1309

Upload Hdxxx short videos ryushare uploaded keep2share

Upload Hdxxx short videos

Teen Sex Porn Videos Free Nude Teens 3671 ryushare uploaded keep2share

Teen Sex Porn Videos Free Nude Teens 3671

Hardcore sex videos in the high definition quality 5010 ryushare uploaded keep2share

Hardcore sex videos in the high definition quality 5010

Model porno sex 4345 ryushare uploaded keep2share

Model porno sex 4345

Beautifull Blonde Models – Ponstars  Orgy Threesome ryushare uploaded keep2share

Beautifull Blonde Models – Ponstars Orgy Threesome

Teen Sex Movies 3822 ryushare uploaded keep2share

Teen Sex Movies 3822

HD Sex World Videos High Definition Free Porn 2998 ryushare uploaded keep2share

HD Sex World Videos High Definition Free Porn 2998

Porn teen hd downloads 224873 ryushare uploaded keep2share

Porn teen hd downloads 224873

Beata – Sharing A Nymph ryushare uploaded keep2share

Beata – Sharing A Nymph

High Definition Movies on HD Teen Porn XXX Tube 1687 ryushare uploaded keep2share

High Definition Movies on HD Teen Porn XXX Tube 1687

Teen 18 Porn XXX Clips Naked 224863 ryushare uploaded keep2share

Teen 18 Porn XXX Clips Naked 224863

Ariana Marie – Post Workout Sex ryushare uploaded keep2share

Ariana Marie – Post Workout Sex

world hd sex clips 226188 ryushare uploaded keep2share

world hd sex clips 226188

xxx garls and boys 226650 ryushare uploaded keep2share

xxx garls and boys 226650

Katy Rose & Lutro – Lubricous ryushare uploaded keep2share

Katy Rose & Lutro – Lubricous

Hot download sex girls movies 225582 ryushare uploaded keep2share

Hot download sex girls movies 225582

Teen Sex Porn Videos Free Nude Teens 225724 ryushare uploaded keep2share

Teen Sex Porn Videos Free Nude Teens 225724

Klixen – K Two Teasing Tongues 12 – B ryushare uploaded keep2share

Klixen – K Two Teasing Tongues 12 – B

Nicole – Summertime sex hookup ryushare uploaded keep2share

Nicole – Summertime sex hookup

Report broken links / Post a comment

You must be logged in to post a comment.



General\r\nComplete name : D:HD Teens Download Porn Sex clips movies TubeGPNRWld.mp4\r\nFormat : MPEG-4\r\nFormat profile : Base Media\r\nCodec ID : isom\r\nFile size : 894 MiB\r\nDuration : 27mn 8s\r\nOverall bit rate : 4 603 Kbps\r\nWriting application : Lavf54.59.106\r\n\r\nVideo\r\nID : 1\r\nFormat : AVC\r\nFormat/Info : Advanced Video Codec\r\nFormat profile : [email protected]\r\nFormat settings, CABAC : Yes\r\nFormat settings, ReFrames : 4 frames\r\nCodec ID : avc1\r\nCodec ID/Info : Advanced Video Coding\r\nDuration : 27mn 8s\r\nBit rate : 4 500 Kbps\r\nWidth : 1 280 pixels\r\nHeight : 720 pixels\r\nDisplay aspect ratio : 16:9\r\nFrame rate mode : Constant\r\nFrame rate : 29.970 fps\r\nColor space : YUV\r\nChroma subsampling : 4:2:0\r\nBit depth : 8 bits\r\nScan type : Progressive\r\nBits/(Pixel*Frame) : 0.163\r\nStream size : 874 MiB (98%)\r\nWriting library : x264 core 120 r2151 a3f4407\r\nEncoding settings : cabac=1 / ref=3 / deblock=1:0:0 / analyse=0x3:0x113 / me=hex / subme=7 / psy=1 / psy_rd=1.00:0.00 / mixed_ref=1 / me_range=16 / chroma_me=1 / trellis=1 / 8x8dct=1 / cqm=0 / deadzone=21,11 / fast_pskip=1 / chroma_qp_offset=-2 / threads=1 / sliced_threads=0 / nr=0 / decimate=1 / interlaced=0 / bluray_compat=0 / constrained_intra=0 / bframes=3 / b_pyramid=2 / b_adapt=1 / b_bias=0 / direct=1 / weightb=1 / open_gop=0 / weightp=2 / keyint=250 / keyint_min=25 / scenecut=40 / intra_refresh=0 / rc_lookahead=40 / rc=abr / mbtree=1 / bitrate=4500 / ratetol=1.0 / qcomp=0.60 / qpmin=0 / qpmax=69 / qpstep=4 / ip_ratio=1.40 / aq=1:1.00\r\n\r\nAudio\r\nID : 2\r\nFormat : AAC\r\nFormat/Info : Advanced Audio Codec\r\nFormat profile : LC\r\nCodec ID : 40\r\nDuration : 27mn 8s\r\nDuration_LastFrame : -17ms\r\nBit rate mode : Constant\r\nBit rate : 96.0 Kbps\r\nChannel(s) : 2 channels\r\nChannel positions : Front: L R\r\nSampling rate : 44.1 KHz\r\nCompression mode : Lossy\r\nStream size : 18.7 MiB (2%)\r\n\r\n