Teen porn movies 3659

Young XXX Tube Videos 3662HD Teens Sex Tube Videos XxX 3653

Posted in Amateur, HD Porn, Sex Movies, Teen | 8823 Views |


Rate this girl !!!




\r\n\r\n2.jpeg\r\n\r\n 



DOWNLOAD

Keep2share.cc - Uploaded.net - Openload.co - Rapidu.net


http://ul.to/3sagopap/SGHNBRjn.wmv
http://ryushare.com/yxen2pz574hw/SGHNBRjn.wmv
http://fileom.com/7977li98u6ww/SGHNBRjn.wmv.html
http://k2s.cc/file/7ddb2907cbd94/SGHNBRjn.wmv


Premium here:
uploaded.net
keep2share.cc
rapidu.net.cc


Teens related to Teen porn movies 3659


HD Porn Teen Sex Videos 4043 ryushare uploaded keep2share

HD Porn Teen Sex Videos 4043

Free High Quality Sex Movies 1175 ryushare uploaded keep2share

Free High Quality Sex Movies 1175

Teenage Fuck Clips 5175 ryushare uploaded keep2share

Teenage Fuck Clips 5175

Fucking skinny pornstar girl ryushare uploaded keep2share

Fucking skinny pornstar girl

bd hd hq xxx pron video ryushare uploaded keep2share

bd hd hq xxx pron video

Teens in Porno young porn videos and free teen sex 225592 ryushare uploaded keep2share

Teens in Porno young porn videos and free teen sex 225592

Scarlet, Christine – Fantasy Come True ryushare uploaded keep2share

Scarlet, Christine – Fantasy Come True

Nude Teens fucking hard 223931 ryushare uploaded keep2share

Nude Teens fucking hard 223931

Small girls and boys porn 4062 ryushare uploaded keep2share

Small girls and boys porn 4062

Aiko Mai, Angellina – Sweet Like Candy ryushare uploaded keep2share

Aiko Mai, Angellina – Sweet Like Candy

Xxx x uploded haigh quality photos 226705 ryushare uploaded keep2share

Xxx x uploded haigh quality photos 226705

Bella Baby  Simon – Sweet Escape For Young Lovers ryushare uploaded keep2share

Bella Baby Simon – Sweet Escape For Young Lovers

High Definition Movies on HD Teen Porn XXX Tube 2483 ryushare uploaded keep2share

High Definition Movies on HD Teen Porn XXX Tube 2483

Daisy, Karin ryushare uploaded keep2share

Daisy, Karin

Watch Teen Sex Videos HD 1207 ryushare uploaded keep2share

Watch Teen Sex Videos HD 1207

J. Joanna (Shoot It For Me / 15.12.13) ryushare uploaded keep2share

J. Joanna (Shoot It For Me / 15.12.13)

hq 18x video com 226250 ryushare uploaded keep2share

hq 18x video com 226250

sex 18 xxxxxxxxx hd ryushare uploaded keep2share

sex 18 xxxxxxxxx hd

pc free porn hd ryushare uploaded keep2share

pc free porn hd

Nude Teens fucking hard 1613 ryushare uploaded keep2share

Nude Teens fucking hard 1613

Hardcore Sex Hub 3273 ryushare uploaded keep2share

Hardcore Sex Hub 3273

high quality full 1080 hd sex movies 226540 ryushare uploaded keep2share

high quality full 1080 hd sex movies 226540

Teen 18 Porn XXX Clips Naked 3113 ryushare uploaded keep2share

Teen 18 Porn XXX Clips Naked 3113

Bella Baby – Opposites Attract ryushare uploaded keep2share

Bella Baby – Opposites Attract

Teen Sex Movies Young Porn Tube Vids 5659 ryushare uploaded keep2share

Teen Sex Movies Young Porn Tube Vids 5659

Hot download sex girls movies 224376 ryushare uploaded keep2share

Hot download sex girls movies 224376

Janna – Real Homemade Sex Tape ryushare uploaded keep2share

Janna – Real Homemade Sex Tape

HQ Sex Movies Download 3382 ryushare uploaded keep2share

HQ Sex Movies Download 3382

Wow girls hd porn teens 225604 ryushare uploaded keep2share

Wow girls hd porn teens 225604

www xxx hot 99 com 226355 ryushare uploaded keep2share

www xxx hot 99 com 226355

Jenny Glam – Who’s My Good Girl? ryushare uploaded keep2share

Jenny Glam – Who’s My Good Girl?

Young xxx 225249 ryushare uploaded keep2share

Young xxx 225249

WowGirls.com Nomi – An Expert At Work ryushare uploaded keep2share

WowGirls.com Nomi – An Expert At Work

Wow porn tube movies 3838 ryushare uploaded keep2share

Wow porn tube movies 3838

[RylskyArt.com] Welesa Wil – Grenarz ryushare uploaded keep2share

[RylskyArt.com] Welesa Wil – Grenarz

Report broken links / Post a comment

You must be logged in to post a comment.



General\r\nComplete name : D:hd pornstars teens ryushare.com uploaded.net keep2share.cc fileom.com download porn movies clips SGHNBRjn.wmv\r\nFormat : Windows Media\r\nFile size : 270 MiB\r\nDuration : 17mn 17s\r\nOverall bit rate mode : Constant\r\nOverall bit rate : 2 180 Kbps\r\nMaximum Overall bit rate : 2 184 Kbps\r\nEncoded date : UTC 2009-03-29 01:53:57.383\r\n\r\nVideo\r\nID : 2\r\nFormat : VC-1\r\nFormat profile : [email protected]\r\nCodec ID : WMV3\r\nCodec ID/Info : Windows Media Video 9\r\nCodec ID/Hint : WMV3\r\nDescription of the codec : Windows Media Video 9 - Professional\r\nDuration : 17mn 17s\r\nBit rate mode : Constant\r\nBit rate : 2 100 Kbps\r\nWidth : 1 280 pixels\r\nHeight : 720 pixels\r\nDisplay aspect ratio : 16:9\r\nFrame rate : 30.000 fps\r\nColor space : YUV\r\nChroma subsampling : 4:2:0\r\nBit depth : 8 bits\r\nScan type : Progressive\r\nCompression mode : Lossy\r\nBits/(Pixel*Frame) : 0.076\r\nStream size : 260 MiB (96%)\r\n\r\nAudio\r\nID : 1\r\nFormat : WMA\r\nFormat version : Version 2\r\nCodec ID : 161\r\nCodec ID/Info : Windows Media Audio\r\nDescription of the codec : Windows Media Audio 9.2 - 64 kbps, 48 kHz, stereo 2-pass CBR\r\nDuration : 17mn 17s\r\nBit rate mode : Constant\r\nBit rate : 64.0 Kbps\r\nChannel(s) : 2 channels\r\nSampling rate : 48.0 KHz\r\nBit depth : 16 bits\r\nStream size : 7.92 MiB (3%)\r\n\r\nhd pornstars teens ryushare.com uploaded.net keep2share.cc fileom.com download porn movies clips