Teen Porn XXX Tube 1470

Young Virgin Pussy Teen Fuck Tube 1473Teen Sex Videos Tube Movies 1466

Posted in Amateur, HD Porn, Sex Movies, Teen | 9800 Views |


Rate this girl !!!




\r\n\r\nhttp://img102.imagetwist.com/i/05218/pano9ia6ofz3.jpeg\r\n\r\nLink(864 Mb||19:26||1920*1080||WMV)



DOWNLOAD

Keep2share.cc - Uploaded.net - Openload.co - Rapidu.net


http://keep2share.cc/file/2cecd8c41bc8c
http://ryushare.com/5u1srtaddd27/FSNDGRty.rar
http://ul.to/pxarger7


Premium here:
uploaded.net
keep2share.cc
rapidu.net.cc


Teens related to Teen Porn XXX Tube 1470


Teen porn movies 1195 ryushare uploaded keep2share

Teen porn movies 1195

Hd video download porn china 226385 ryushare uploaded keep2share

Hd video download porn china 226385

Watch Teen Sex Videos HD 1595 ryushare uploaded keep2share

Watch Teen Sex Videos HD 1595

Teen porn movies 225314 ryushare uploaded keep2share

Teen porn movies 225314

hd com 18 year sex mobi 226401 ryushare uploaded keep2share

hd com 18 year sex mobi 226401

Girls sex art hd teens videos 225167 ryushare uploaded keep2share

Girls sex art hd teens videos 225167

Wow porn tube movies 5631 ryushare uploaded keep2share

Wow porn tube movies 5631

TrickyMasseur.com January ryushare uploaded keep2share

TrickyMasseur.com January

Xxx comsexxx 226198 ryushare uploaded keep2share

Xxx comsexxx 226198

Teens sex mania 223786 ryushare uploaded keep2share

Teens sex mania 223786

Download young porn sex 224839 ryushare uploaded keep2share

Download young porn sex 224839

I Like Old Dick In My Teeny Ass – Ivana Sugar ryushare uploaded keep2share

I Like Old Dick In My Teeny Ass – Ivana Sugar

girls high quality sex videos download 226282 ryushare uploaded keep2share

girls high quality sex videos download 226282

hot and sexy xxx bf movie download 226359 ryushare uploaded keep2share

hot and sexy xxx bf movie download 226359

Nude Teens fucking hard 5172 ryushare uploaded keep2share

Nude Teens fucking hard 5172

Porn party teen girls 225425 ryushare uploaded keep2share

Porn party teen girls 225425

Defloration.com Erika Kleptovich – Losing of Virginity ryushare uploaded keep2share

Defloration.com Erika Kleptovich – Losing of Virginity

HD Porn Video 1552 ryushare uploaded keep2share

HD Porn Video 1552

Xxxbabez teen video ryushare uploaded keep2share

Xxxbabez teen video

Wow girls downloads hd 224420 ryushare uploaded keep2share

Wow girls downloads hd 224420

Hot Teen Sex HD videos 2172 ryushare uploaded keep2share

Hot Teen Sex HD videos 2172

Hot teen ryushare uploaded keep2share

Hot teen

Wow porn tube movies 224880 ryushare uploaded keep2share

Wow porn tube movies 224880

wow cum com hd 226397 ryushare uploaded keep2share

wow cum com hd 226397

Lilly – Hot pussy Fuck In An Armchair ryushare uploaded keep2share

Lilly – Hot pussy Fuck In An Armchair

wwwxxxsexvedios 226609 ryushare uploaded keep2share

wwwxxxsexvedios 226609

xxx full hq poharn vido downlod 226036 ryushare uploaded keep2share

xxx full hq poharn vido downlod 226036

HD Porn Video 224481 ryushare uploaded keep2share

HD Porn Video 224481

High Definition Movies on HD Teen Porn XXX Tube 6225 ryushare uploaded keep2share

High Definition Movies on HD Teen Porn XXX Tube 6225

Teen 18 Porn XXX Clips Naked 224773 ryushare uploaded keep2share

Teen 18 Porn XXX Clips Naked 224773

grace c Creampie-Angels ryushare uploaded keep2share

grace c Creampie-Angels

fantasy yes xxx com 226226 ryushare uploaded keep2share

fantasy yes xxx com 226226

Creampie-Angels.com Licie ryushare uploaded keep2share

Creampie-Angels.com Licie

Hot sex girls movies download 3478 ryushare uploaded keep2share

Hot sex girls movies download 3478

HDMassagePorn – Gianna – Sporty Blonde In Hot HD Porn ryushare uploaded keep2share

HDMassagePorn – Gianna – Sporty Blonde In Hot HD Porn

Report broken links / Post a comment

You must be logged in to post a comment.



General\r\nComplete name : D:HD Teens Download Porn Sex clips movies Tube.xxxFSNDGRtyFSNDGRty.wmv\r\nFormat : Windows Media\r\nFile size : 864 MiB\r\nDuration : 19mn 26s\r\nOverall bit rate mode : Constant\r\nOverall bit rate : 6 215 Kbps\r\nMaximum Overall bit rate : 6 240 Kbps\r\nEncoded date : UTC 2014-01-22 12:28:18.858\r\n\r\nVideo\r\nID : 1\r\nFormat : VC-1\r\nFormat profile : [email protected]\r\nCodec ID : WMV3\r\nCodec ID/Info : Windows Media Video 9\r\nCodec ID/Hint : WMV3\r\nDescription of the codec : Windows Media Video 9 - Professional\r\nDuration : 19mn 26s\r\nBit rate mode : Constant\r\nBit rate : 6 000 Kbps\r\nWidth : 1 920 pixels\r\nHeight : 1 080 pixels\r\nDisplay aspect ratio : 16:9\r\nFrame rate : 29.970 fps\r\nColor space : YUV\r\nChroma subsampling : 4:2:0\r\nBit depth : 8 bits\r\nScan type : Progressive\r\nCompression mode : Lossy\r\nBits/(Pixel*Frame) : 0.097\r\nStream size : 834 MiB (97%)\r\nLanguage : Russian\r\n\r\nAudio\r\nID : 2\r\nFormat : WMA\r\nFormat version : Version 2\r\nCodec ID : 161\r\nCodec ID/Info : Windows Media Audio\r\nDescription of the codec : Windows Media Audio 9.2 - 192 kbps, 48 kHz, stereo 1-pass CBR\r\nDuration : 19mn 26s\r\nBit rate mode : Constant\r\nBit rate : 192 Kbps\r\nChannel(s) : 2 channels\r\nSampling rate : 48.0 KHz\r\nBit depth : 16 bits\r\nStream size : 26.7 MiB (3%)\r\nLanguage : Russian\r\n\r\n\r\n