Teen Porn XXX Tube 1957

HD Porn Videos 1960Teen porn movies 1954

Posted in Amateur, HD Porn, Sex Movies, Teen | 10577 Views |


Rate this girl !!!




\r\n\r\nhttp://img101.imagetwist.com/i/05120/s3faog5hvffe.jpeg\r\n\r\n Link(646 Mb||21:55||1280*720||MP4)



DOWNLOAD

Keep2share.cc - Uploaded.net - Openload.co - Rapidu.net


http://keep2share.cc/file/5a75a7079e330
http://ul.to/ho64pcee
http://ryushare.com/jmoc9ayq85if/SXRGRNvn.rar


Premium here:
uploaded.net
keep2share.cc
rapidu.net.cc


Teens related to Teen Porn XXX Tube 1957


Hd young videos 3757 ryushare uploaded keep2share

Hd young videos 3757

Xxxx 2014massage 226629 ryushare uploaded keep2share

Xxxx 2014massage 226629

Hot brunette – blowjob and fucked ryushare uploaded keep2share

Hot brunette – blowjob and fucked

Fresh Teen Videos 4156 ryushare uploaded keep2share

Fresh Teen Videos 4156

Teen Sex Movies Young Porn Tube Vids 4094 ryushare uploaded keep2share

Teen Sex Movies Young Porn Tube Vids 4094

xxx hq sexy vedioes 226528 ryushare uploaded keep2share

xxx hq sexy vedioes 226528

Teen Sex Movies Young Porn Tube Vids 1253 ryushare uploaded keep2share

Teen Sex Movies Young Porn Tube Vids 1253

Teen Porn XXX Tube 1470 ryushare uploaded keep2share

Teen Porn XXX Tube 1470

J. Joanna – I’m Eve. Want An Apple? ryushare uploaded keep2share

J. Joanna – I’m Eve. Want An Apple?

Teen 18 Porn XXX Clips Naked 4357 ryushare uploaded keep2share

Teen 18 Porn XXX Clips Naked 4357

Movies Young legal porn 5205 ryushare uploaded keep2share

Movies Young legal porn 5205

Good Teen Tube Sexy Young Naked Girls Movies 225493 ryushare uploaded keep2share

Good Teen Tube Sexy Young Naked Girls Movies 225493

tube sex 17 girl ryushare uploaded keep2share

tube sex 17 girl

ww poran xxx hd com 226538 ryushare uploaded keep2share

ww poran xxx hd com 226538

Wow Porn Teen Movies HD ryushare uploaded keep2share

Wow Porn Teen Movies HD

Dani Jensen – NaughtyAmerica ryushare uploaded keep2share

Dani Jensen – NaughtyAmerica

Viktoria Diamond – Sinful Scarlet Mood ryushare uploaded keep2share

Viktoria Diamond – Sinful Scarlet Mood

Teen Sex Videos Tube Movies 1759 ryushare uploaded keep2share

Teen Sex Videos Tube Movies 1759

Nubilefilms.com Elena Rae – Russian Beauty ryushare uploaded keep2share

Nubilefilms.com Elena Rae – Russian Beauty

Little pornstar teen with a big hole ryushare uploaded keep2share

Little pornstar teen with a big hole

Teen Porn XXX Tube 225246 ryushare uploaded keep2share

Teen Porn XXX Tube 225246

video porn massage porn ryushare uploaded keep2share

video porn massage porn

The best Teen sex 224742 ryushare uploaded keep2share

The best Teen sex 224742

HD Sex World Videos High Definition Free Porn 224277 ryushare uploaded keep2share

HD Sex World Videos High Definition Free Porn 224277

boy xxx walpapr 226621 ryushare uploaded keep2share

boy xxx walpapr 226621

Teen Sex Movies 1635 ryushare uploaded keep2share

Teen Sex Movies 1635

Teen porn xxx 5132 ryushare uploaded keep2share

Teen porn xxx 5132

pon ster xxxxxx ryushare uploaded keep2share

pon ster xxxxxx

Hardcore Sex Hub 225234 ryushare uploaded keep2share

Hardcore Sex Hub 225234

PRONO SEX VIDEO ryushare uploaded keep2share

PRONO SEX VIDEO

21Naturals.com Kiara Lord – Strings of passion ryushare uploaded keep2share

21Naturals.com Kiara Lord – Strings of passion

Kiara Lord – Offline Erotica ryushare uploaded keep2share

Kiara Lord – Offline Erotica

Backyard Amateurs (3 scenes) ryushare uploaded keep2share

Backyard Amateurs (3 scenes)

Adult Hardcore XXX Sex Videos 3788 ryushare uploaded keep2share

Adult Hardcore XXX Sex Videos 3788

Good Teen Tube Sexy Young Naked Girls Movies 2157 ryushare uploaded keep2share

Good Teen Tube Sexy Young Naked Girls Movies 2157

Report broken links / Post a comment

You must be logged in to post a comment.



General\r\nComplete name : D:HD Teens Download Porn Sex clips movies Tube.xxxSXRGRNvnSXRGRNvn.mp4\r\nFormat : MPEG-4\r\nFormat profile : Base Media\r\nCodec ID : isom\r\nFile size : 646 MiB\r\nDuration : 21mn 55s\r\nOverall bit rate mode : Variable\r\nOverall bit rate : 4 122 Kbps\r\nEncoded date : UTC 2014-01-16 21:19:52\r\nTagged date : UTC 2014-01-16 21:19:52\r\nWriting application : Lavf53.32.100\r\n\r\nVideo\r\nID : 1\r\nFormat : AVC\r\nFormat/Info : Advanced Video Codec\r\nFormat profile : [email protected]\r\nFormat settings, CABAC : Yes\r\nFormat settings, ReFrames : 5 frames\r\nCodec ID : avc1\r\nCodec ID/Info : Advanced Video Coding\r\nDuration : 21mn 55s\r\nBit rate : 4 000 Kbps\r\nWidth : 1 280 pixels\r\nHeight : 720 pixels\r\nDisplay aspect ratio : 16:9\r\nFrame rate mode : Constant\r\nFrame rate : 25.000 fps\r\nColor space : YUV\r\nChroma subsampling : 4:2:0\r\nBit depth : 8 bits\r\nScan type : Progressive\r\nBits/(Pixel*Frame) : 0.174\r\nStream size : 627 MiB (97%)\r\nWriting library : x264 core 129 r2245 bc13772\r\nEncoding settings : cabac=1 / ref=5 / deblock=1:0:0 / analyse=0x3:0x113 / me=umh / subme=8 / psy=0 / mixed_ref=1 / me_range=16 / chroma_me=1 / trellis=1 / 8x8dct=1 / cqm=0 / deadzone=21,11 / fast_pskip=1 / chroma_qp_offset=0 / threads=36 / lookahead_threads=6 / sliced_threads=0 / nr=0 / decimate=1 / interlaced=0 / bluray_compat=0 / constrained_intra=0 / bframes=3 / b_pyramid=2 / b_adapt=2 / b_bias=0 / direct=3 / weightb=1 / open_gop=0 / weightp=2 / keyint=250 / keyint_min=25 / scenecut=40 / intra_refresh=0 / rc=2pass / mbtree=0 / bitrate=4000 / ratetol=1.0 / qcomp=0.60 / qpmin=10 / qpmax=51 / qpstep=4 / cplxblur=20.0 / qblur=0.5 / ip_ratio=1.40 / pb_ratio=1.30 / aq=1:1.00\r\nLanguage : English\r\nEncoded date : UTC 2014-01-16 21:19:52\r\nTagged date : UTC 2014-01-16 21:19:52\r\n\r\nAudio\r\nID : 2\r\nFormat : AAC\r\nFormat/Info : Advanced Audio Codec\r\nFormat profile : LC\r\nCodec ID : 40\r\nDuration : 21mn 55s\r\nBit rate mode : Variable\r\nBit rate : 117 Kbps\r\nMaximum bit rate : 128 Kbps\r\nChannel(s) : 2 channels\r\nChannel positions : Front: L R\r\nSampling rate : 44.1 KHz\r\nCompression mode : Lossy\r\nStream size : 18.4 MiB (3%)\r\nLanguage : English\r\nEncoded date : UTC 2014-01-16 21:19:52\r\nTagged date : UTC 2014-01-16 21:19:52\r\n\r\n