Teen Sex Movies 1891

Alica - Quiet but deadlyNubileFilms.com Kacy Lane – Sexual Tension

Posted in Amateur, HD Porn, Sex Movies, Teen, Threesome | 12607 Views |


Rate this girl !!!




\r\n\r\nhttp://img56.imagetwist.com/i/05295/sodhk9qgoa4b.jpg\r\n\r\n Link(789 Mb||39:02||1280*720||MP4)



DOWNLOAD

Keep2share.cc - Uploaded.net - Openload.co - Rapidu.net


http://played.to/57y9ic5bmd66
http://k2s.cc/file/8ed9e642d31d3/C.GSPRCh2.mp4
http://ul.to/q4ki7g2m
http://ryushare.com/x67puo3vezlr/C.GSPRCh2.mp4


Premium here:
uploaded.net
keep2share.cc
rapidu.net.cc


Teens related to Teen Sex Movies 1891


Porn HD Sex HD Teen Sex 3694 ryushare uploaded keep2share

Porn HD Sex HD Teen Sex 3694

Hd quality – Teen sex video 1722 ryushare uploaded keep2share

Hd quality – Teen sex video 1722

Wow porn hd downloads 225727 ryushare uploaded keep2share

Wow porn hd downloads 225727

virgin fuck girl clips 226391 ryushare uploaded keep2share

virgin fuck girl clips 226391

Zarina AKA: Dalida ryushare uploaded keep2share

Zarina AKA: Dalida

High Definition Movies on HD 3938 ryushare uploaded keep2share

High Definition Movies on HD 3938

pc hd fucking clip 226607 ryushare uploaded keep2share

pc hd fucking clip 226607

Iwia A & Lorena B & Greg Baldwin – Dare ryushare uploaded keep2share

Iwia A & Lorena B & Greg Baldwin – Dare

Beautiful model ryushare uploaded keep2share

Beautiful model

Small girls and boys porn 4639 ryushare uploaded keep2share

Small girls and boys porn 4639

In Hd quality xxx video for download 226652 ryushare uploaded keep2share

In Hd quality xxx video for download 226652

Teen Sex Movies 1635 ryushare uploaded keep2share

Teen Sex Movies 1635

Good Teen Tube Sexy Young Naked Girls Movies 225111 ryushare uploaded keep2share

Good Teen Tube Sexy Young Naked Girls Movies 225111

download hot pussy xxx HD video ryushare uploaded keep2share

download hot pussy xxx HD video

porn xxx sex movies mkv free download 226603 ryushare uploaded keep2share

porn xxx sex movies mkv free download 226603

First time Sexual Films 18 sex xxx 224473 ryushare uploaded keep2share

First time Sexual Films 18 sex xxx 224473

EuroSexParties Tiana And Beata Undine Time For Playing ryushare uploaded keep2share

EuroSexParties Tiana And Beata Undine Time For Playing

[LegalPorno.com] Rebecca Volpetti (Rebecca Volpetti goes hardcore: 3on1 anal & DP SZ1298) [2016 г., Gonzo, Gangbang, Anal, DP, Swallow, 720p] Страницы:  1 ryushare uploaded keep2share

[LegalPorno.com] Rebecca Volpetti (Rebecca Volpetti goes hardcore: 3on1 anal & DP SZ1298) [2016 г., Gonzo, Gangbang, Anal, DP, Swallow, 720p] Страницы: 1

Good Teen Tube Sexy Young Naked Girls Movies 1383 ryushare uploaded keep2share

Good Teen Tube Sexy Young Naked Girls Movies 1383

Teens in Porno young porn videos and free teen sex 225811 ryushare uploaded keep2share

Teens in Porno young porn videos and free teen sex 225811

free high resolution porn movies 226717 ryushare uploaded keep2share

free high resolution porn movies 226717

HD Sex World Videos High Definition Free Porn 3501 ryushare uploaded keep2share

HD Sex World Videos High Definition Free Porn 3501

Porn party teen girls 224921 ryushare uploaded keep2share

Porn party teen girls 224921

Sexart  – Carla Cox – The last night (Orgy) ryushare uploaded keep2share

Sexart – Carla Cox – The last night (Orgy)

High Definition Movies on HD 4166 ryushare uploaded keep2share

High Definition Movies on HD 4166

Teenage Fuck Clips 3779 ryushare uploaded keep2share

Teenage Fuck Clips 3779

xxx18 yes 226216 ryushare uploaded keep2share

xxx18 yes 226216

Model porno sex 2822 ryushare uploaded keep2share

Model porno sex 2822

hq hd sexi 18 vidio daonlod com ryushare uploaded keep2share

hq hd sexi 18 vidio daonlod com

PORNOZZ FULL 720 226768 ryushare uploaded keep2share

PORNOZZ FULL 720 226768

Kiara Lord – Offline Erotica ryushare uploaded keep2share

Kiara Lord – Offline Erotica

Susan Ayn ryushare uploaded keep2share

Susan Ayn

Wow girls downloads hd 223706 ryushare uploaded keep2share

Wow girls downloads hd 223706

Hd young videos 1695 ryushare uploaded keep2share

Hd young videos 1695

Barezzers sexhd com 226100 ryushare uploaded keep2share

Barezzers sexhd com 226100

Report broken links / Post a comment

You must be logged in to post a comment.



General\r\nComplete name : D:HD Teens Download Porn Sex clips movies Tube.xxxCGSPRCh2CGSPRCh2.mp4\r\nFormat : MPEG-4\r\nFormat profile : Base Media\r\nCodec ID : isom\r\nFile size : 789 MiB\r\nDuration : 39mn 2s\r\nOverall bit rate : 2 825 Kbps\r\nWriting application : Lavf55.12.102\r\n\r\nVideo\r\nID : 1\r\nFormat : AVC\r\nFormat/Info : Advanced Video Codec\r\nFormat profile : [email protected]\r\nFormat settings, CABAC : Yes\r\nFormat settings, ReFrames : 5 frames\r\nCodec ID : avc1\r\nCodec ID/Info : Advanced Video Coding\r\nDuration : 39mn 2s\r\nBit rate : 2 753 Kbps\r\nWidth : 1 280 pixels\r\nHeight : 720 pixels\r\nDisplay aspect ratio : 16:9\r\nFrame rate mode : Constant\r\nFrame rate : 29.970 fps\r\nColor space : YUV\r\nChroma subsampling : 4:2:0\r\nBit depth : 8 bits\r\nScan type : Progressive\r\nBits/(Pixel*Frame) : 0.100\r\nStream size : 769 MiB (97%)\r\nWriting library : x264 core 133 r2334 a3ac64b\r\nEncoding settings : cabac=1 / ref=5 / deblock=1:0:0 / analyse=0x3:0x113 / me=umh / subme=8 / psy=1 / psy_rd=1.00:0.00 / mixed_ref=1 / me_range=16 / chroma_me=1 / trellis=1 / 8x8dct=1 / cqm=0 / deadzone=21,11 / fast_pskip=1 / chroma_qp_offset=2 / threads=6 / lookahead_threads=1 / sliced_threads=0 / nr=0 / decimate=1 / interlaced=0 / bluray_compat=0 / constrained_intra=0 / bframes=3 / b_pyramid=2 / b_adapt=2 / b_bias=0 / direct=3 / weightb=1 / open_gop=0 / weightp=2 / keyint=150 / keyint_min=15 / scenecut=40 / intra_refresh=0 / rc_lookahead=50 / rc=crf / mbtree=1 / crf=24.0 / qcomp=0.60 / qpmin=0 / qpmax=69 / qpstep=4 / vbv_maxrate=3000 / vbv_bufsize=3000 / crf_max=0.0 / nal_hrd=none / ip_ratio=1.40 / aq=1:1.00\r\n\r\nAudio\r\nID : 2\r\nFormat : AAC\r\nFormat/Info : Advanced Audio Codec\r\nFormat profile : LC\r\nCodec ID : 40\r\nDuration : 39mn 2s\r\nDuration_LastFrame : -10ms\r\nBit rate mode : Constant\r\nBit rate : 63.8 Kbps\r\nChannel(s) : 2 channels\r\nChannel(s)_Original : 1 channel\r\nChannel positions : Front: C\r\nSampling rate : 44.1 KHz\r\nCompression mode : Lossy\r\nStream size : 17.8 MiB (2%)\r\n\r\n