Teen Sex Porn Videos Free Nude Teens 3671

Tube Young Sex 3680Teen Tits Tube, Young Girls Porn Videos 3672

Posted in Amateur, HD Porn, Sex Movies, Teen, Threesome | 13528 Views |


Rate this girl !!!




\r\n\r\n2.jpeg



DOWNLOAD

Keep2share.cc - Uploaded.net - Openload.co - Rapidu.net


http://ul.to/9vcm7k1g/FRSBGMjy.wmv
http://fileom.com/eod3q7elarq8/FRSBGMjy.wmv.html
http://k2s.cc/file/99927a5451e87/FRSBGMjy.wmv
http://ryushare.com/fvsp0002lrso/FRSBGMjy.wmv


Premium here:
uploaded.net
keep2share.cc
rapidu.net.cc


Teens related to Teen Sex Porn Videos Free Nude Teens 3671


young xxx porn hd ryushare uploaded keep2share

young xxx porn hd

Small girls and boys porn 3511 ryushare uploaded keep2share

Small girls and boys porn 3511

K Two Teasing Tongues 8 A ryushare uploaded keep2share

K Two Teasing Tongues 8 A

Molly – Deep and passionate anal ryushare uploaded keep2share

Molly – Deep and passionate anal

farst taim sex downlod ryushare uploaded keep2share

farst taim sex downlod

Irina hot teen ryushare uploaded keep2share

Irina hot teen

sex wwwxxx xcxx ryushare uploaded keep2share

sex wwwxxx xcxx

Squirters Juice Bar Carla Cox ryushare uploaded keep2share

Squirters Juice Bar Carla Cox

First time Sexual Films 18 sex xxx 1576 ryushare uploaded keep2share

First time Sexual Films 18 sex xxx 1576

Free Young Porn Videos XXX Teen Porn 224223 ryushare uploaded keep2share

Free Young Porn Videos XXX Teen Porn 224223

xxxvidohd donlwd com ryushare uploaded keep2share

xxxvidohd donlwd com

Nude Teens fucking hard 5262 ryushare uploaded keep2share

Nude Teens fucking hard 5262

Teen porn movies 224217 ryushare uploaded keep2share

Teen porn movies 224217

HQ xxx videos in free download ryushare uploaded keep2share

HQ xxx videos in free download

Free Young Porn Videos XXX Teen Porn 224175 ryushare uploaded keep2share

Free Young Porn Videos XXX Teen Porn 224175

wallpaper of XXX on bed boys and girl 226347 ryushare uploaded keep2share

wallpaper of XXX on bed boys and girl 226347

Good Teen Tube Sexy Young Naked Girls Movies 225127 ryushare uploaded keep2share

Good Teen Tube Sexy Young Naked Girls Movies 225127

Teen Sex Movies Young Porn Tube Vids 224048 ryushare uploaded keep2share

Teen Sex Movies Young Porn Tube Vids 224048

HD Porn Teen Sex Videos 2182 ryushare uploaded keep2share

HD Porn Teen Sex Videos 2182

www xxx hot 18 hd videos com ryushare uploaded keep2share

www xxx hot 18 hd videos com

Porno movies young teens lesbian 224977 ryushare uploaded keep2share

Porno movies young teens lesbian 224977

[RylskyArt.com] Liania – Mitsiia ryushare uploaded keep2share

[RylskyArt.com] Liania – Mitsiia

Teen Sex Movies Young Porn Tube Vids 2930 ryushare uploaded keep2share

Teen Sex Movies Young Porn Tube Vids 2930

Xxxbabez teen video ryushare uploaded keep2share

Xxxbabez teen video

Young Sex Movies 5160 ryushare uploaded keep2share

Young Sex Movies 5160

HD Sex World Videos High Definition Free Porn 5561 ryushare uploaded keep2share

HD Sex World Videos High Definition Free Porn 5561

Young legal porn clips 2837 ryushare uploaded keep2share

Young legal porn clips 2837

Young Sex Movies 5605 ryushare uploaded keep2share

Young Sex Movies 5605

Veronica Radke Tube Young Sex 3483 ryushare uploaded keep2share

Veronica Radke Tube Young Sex 3483

Teenage Fuck Clips 5175 ryushare uploaded keep2share

Teenage Fuck Clips 5175

Young Sex Movies 3635 ryushare uploaded keep2share

Young Sex Movies 3635

Spanish Party Hot Teens HD ryushare uploaded keep2share

Spanish Party Hot Teens HD

HD Teens Sex Tube Videos XxX 2388 ryushare uploaded keep2share

HD Teens Sex Tube Videos XxX 2388

HD Porn Videos 225354 ryushare uploaded keep2share

HD Porn Videos 225354

Teen porn xxx 225114 ryushare uploaded keep2share

Teen porn xxx 225114

Report broken links / Post a comment

You must be logged in to post a comment.



General\r\nComplete name : D:hd pornstars teens ryushare.com uploaded.net keep2share.cc fileom.com download porn movies clips FRSBGMjy.wmv\r\nFormat : Windows Media\r\nFile size : 767 MiB\r\nDuration : 23mn 1s\r\nOverall bit rate mode : Constant\r\nOverall bit rate : 4 657 Kbps\r\nMaximum Overall bit rate : 5 290 Kbps\r\nPerformer : Royal-Cash.com\r\nEncoded date : UTC 2014-05-21 11:45:35.118\r\nCopyright : Royal-Cash.com\r\n\r\nVideo\r\nID : 2\r\nFormat : VC-1\r\nFormat profile : [email protected]\r\nCodec ID : WMV3\r\nCodec ID/Info : Windows Media Video 9\r\nCodec ID/Hint : WMV3\r\nDescription of the codec : Windows Media Video 9 - Professional\r\nDuration : 23mn 1s\r\nBit rate mode : Constant\r\nBit rate : 5 120 Kbps\r\nWidth : 1 280 pixels\r\nHeight : 720 pixels\r\nDisplay aspect ratio : 16:9\r\nFrame rate : 25.000 fps\r\nColor space : YUV\r\nChroma subsampling : 4:2:0\r\nBit depth : 8 bits\r\nScan type : Progressive\r\nCompression mode : Lossy\r\nBits/(Pixel*Frame) : 0.222\r\nStream size : 843 MiB\r\nLanguage : Russian\r\nNumberOfFrames : 34527\r\n\r\nAudio\r\nID : 1\r\nFormat : WMA\r\nFormat version : Version 2\r\nCodec ID : 161\r\nCodec ID/Info : Windows Media Audio\r\nDescription of the codec : Windows Media Audio 9.2 - 128 kbps, 44 kHz, stereo 1-pass CBR\r\nDuration : 23mn 1s\r\nBit rate mode : Constant\r\nBit rate : 128 Kbps\r\nChannel(s) : 2 channels\r\nSampling rate : 44.1 KHz\r\nBit depth : 16 bits\r\nStream size : 21.1 MiB (3%)\r\nLanguage : Russian\r\nNumberOfFrames : 3720\r\n\r\nhd pornstars teens ryushare.com uploaded.net keep2share.cc fileom.com download porn movies clips