Teen Tits Tube, Young Girls Porn Videos 3993

High Definition Movies on HD 39988 Teen XXX - Teen Sex 3987

Posted in HD Porn, Pornstar, Sex Movies, Teen | 10017 Views |


Rate this girl !!!




\r\n2.jpeg\r\n\r\nLink(541 Mb||18:45||1280*720||MP4)



DOWNLOAD

Keep2share.cc - Uploaded.net - Openload.co - Rapidu.net


http://ul.to/gksr5fex/S.N.T.CYPrc.mp4
http://ryushare.com/nsxwquans23e/S.N.T.CYPrc.mp4
http://k2s.cc/file/802fd78a9a705/S.N.T.CYPrc.mp4
http://fileom.com/vhdh11pzpiwq/S.N.T.CYPrc.mp4.html


Premium here:
uploaded.net
keep2share.cc
rapidu.net.cc


Teens related to Teen Tits Tube, Young Girls Porn Videos 3993


Nude Teens fucking hard 2189 ryushare uploaded keep2share

Nude Teens fucking hard 2189

Hd 89xxx vedios com 226476 ryushare uploaded keep2share

Hd 89xxx vedios com 226476

Teen 18 Porn XXX Clips Naked 3465 ryushare uploaded keep2share

Teen 18 Porn XXX Clips Naked 3465

WowGirls Livia Grace C Getting Off Without A Cock ryushare uploaded keep2share

WowGirls Livia Grace C Getting Off Without A Cock

NubileFilms.com Taylor Whyte – Finally Home ryushare uploaded keep2share

NubileFilms.com Taylor Whyte – Finally Home

Alyona – No Mercy For Your Ass ryushare uploaded keep2share

Alyona – No Mercy For Your Ass

bonksex videos ryushare uploaded keep2share

bonksex videos

pone sexy downloadfor free 226713 ryushare uploaded keep2share

pone sexy downloadfor free 226713

WWW YES HD XXX SEX VIDEOO COM 226680 ryushare uploaded keep2share

WWW YES HD XXX SEX VIDEOO COM 226680

download pc porno movie ryushare uploaded keep2share

download pc porno movie

Teenage Fuck Clips 225869 ryushare uploaded keep2share

Teenage Fuck Clips 225869

Wow porn hd downloads 224645 ryushare uploaded keep2share

Wow porn hd downloads 224645

Girls do porn in HD 224304 ryushare uploaded keep2share

Girls do porn in HD 224304

Young Sex Movies 3635 ryushare uploaded keep2share

Young Sex Movies 3635

xxx video 6teen Hd ryushare uploaded keep2share

xxx video 6teen Hd

Pornstar teen fucked in all holes ryushare uploaded keep2share

Pornstar teen fucked in all holes

Young legal porn clips 3535 ryushare uploaded keep2share

Young legal porn clips 3535

www virgin sex hd porn videos com ryushare uploaded keep2share

www virgin sex hd porn videos com

Hd young videos 4049 ryushare uploaded keep2share

Hd young videos 4049

Jenny Glam – Who’s My Good Girl? ryushare uploaded keep2share

Jenny Glam – Who’s My Good Girl?

HD ref gurup sex xxx ryushare uploaded keep2share

HD ref gurup sex xxx

1By-Day.com Danika – Undercover Banana ryushare uploaded keep2share

1By-Day.com Danika – Undercover Banana

17sex viodeos 226514 ryushare uploaded keep2share

17sex viodeos 226514

[WakeUpNFuck.com / PierreWoodman.com] Vyvan Hill (WUNF 202) [2016 г., Anal, DP, DPP, Gangbang, Foursome MMMF, Swallow, 720p] ryushare uploaded keep2share

[WakeUpNFuck.com / PierreWoodman.com] Vyvan Hill (WUNF 202) [2016 г., Anal, DP, DPP, Gangbang, Foursome MMMF, Swallow, 720p]

Amateur Teen Sex 5388 ryushare uploaded keep2share

Amateur Teen Sex 5388

hq 18x video com 226250 ryushare uploaded keep2share

hq 18x video com 226250

www sexhd-yesxxx com 226556 ryushare uploaded keep2share

www sexhd-yesxxx com 226556

Young Sex Movies 224539 ryushare uploaded keep2share

Young Sex Movies 224539

HD teen sex tube 3887 ryushare uploaded keep2share

HD teen sex tube 3887

Teen porn xxx 224307 ryushare uploaded keep2share

Teen porn xxx 224307

sex bf movies hd com 226379 ryushare uploaded keep2share

sex bf movies hd com 226379

Free High Quality Sex Movies 223962 ryushare uploaded keep2share

Free High Quality Sex Movies 223962

Teen Porn XXX Tube 1280 ryushare uploaded keep2share

Teen Porn XXX Tube 1280

Wow girls hd porn teens 224580 ryushare uploaded keep2share

Wow girls hd porn teens 224580

Hot Teen Sex HD videos 224298 ryushare uploaded keep2share

Hot Teen Sex HD videos 224298

Report broken links / Post a comment

You must be logged in to post a comment.



hd tube amateur porn young girls sex direct download online movies clips\r\nryushare.com uploaded.net keep2share.cc fileom.com streamcloud.eu allmyvideos.net ul.to download porn movies clip\r\n\r\nGeneral\r\nComplete name : D:S.N.T.CYPrc.mp4\r\nFormat : MPEG-4\r\nFormat profile : Base Media\r\nCodec ID : isom\r\nFile size : 541 MiB\r\nDuration : 18mn 45s\r\nOverall bit rate mode : Variable\r\nOverall bit rate : 4 031 Kbps\r\nWriting application : Lavf55.33.101\r\n\r\nVideo\r\nID : 1\r\nFormat : MPEG-4 Visual\r\nFormat profile : [email protected]\r\nFormat settings, BVOP : No\r\nFormat settings, QPel : No\r\nFormat settings, GMC : No warppoints\r\nFormat settings, Matrix : Default (H.263)\r\nCodec ID : 20\r\nDuration : 18mn 45s\r\nBit rate mode : Variable\r\nBit rate : 3 900 Kbps\r\nMaximum bit rate : 5 000 Kbps\r\nWidth : 1 280 pixels\r\nHeight : 720 pixels\r\nDisplay aspect ratio : 16:9\r\nFrame rate mode : Constant\r\nFrame rate : 23.976 fps\r\nColor space : YUV\r\nChroma subsampling : 4:2:0\r\nBit depth : 8 bits\r\nScan type : Progressive\r\nCompression mode : Lossy\r\nBits/(Pixel*Frame) : 0.176\r\nStream size : 523 MiB (97%)\r\nWriting library : Lavc55.52.102\r\nLanguage : English\r\n\r\nAudio\r\nID : 2\r\nFormat : AAC\r\nFormat/Info : Advanced Audio Codec\r\nFormat profile : LC\r\nCodec ID : 40\r\nDuration : 18mn 45s\r\nBit rate mode : Constant\r\nBit rate : 128 Kbps\r\nChannel(s) : 2 channels\r\nChannel positions : Front: L R\r\nSampling rate : 48.0 KHz\r\nCompression mode : Lossy\r\nStream size : 17.1 MiB (3%)\r\nLanguage : English\r\n\r\nRAPIDGATOR / UPLOADED / UPLOADABLE / KEEP2SHARE\r\nUPLOADED / RYUSHARE / FILEOM / KEEP2SHARE\r\n\r\nhd tube amateur porn young girls sex direct download online movies clips\r\nryushare.com uploaded.net keep2share.cc fileom.com streamcloud.eu allmyvideos.net ul.to download porn movies clip